Welcome Guest ( Log In | Register )

> Black Altar - Suicidal Salvation [ep] (2013), Black Metal
post Nov 17 2013, 13:49:25
Post #1

Правь статус, ####!111
**************
Group: Металариец
Posts: 2,976
Releases: 423
On Forums: 13 years 7 months
Thanks: 14332 time(s)
Germany


(IMG:http://metalarea.org/images/audiocovers/2013_Nov/acov_tid212625_thumb.jpg)

*Artist: Black Altar
*Album: Suicidal Salvation [ep]
*Year: 2013
*Genre: Black Metal
*Country: Poland (IMG:http://metalarea.org/forum/style_images/flags/Poland.png)
*Format: mp3@CBR320kbps
*Size: 48MB

Tracklist:
1. The Sentence
2. Suicidal Salvation
3. Journey To The Astral Realm
4. Pulse Ov The Universe
5. 666 MegaBeast
******************************
Total playing time: 20:32

(IMG:http://metalarea.org/images/youtube.png)

Technical info
(IMG:http://metalarea.org/images/spectrogram/2013_Nov/cf166d7374176bff5612c1c97ff0ad6f.png)
Input File: 02 - Suicidal Salvation.mp3
Channels : 2
Sample Rate : 44100
Precision : 16-bit
Duration : 00:06:21.70 = 16833146 samples = 28627.8 CDDA sectors
File Size : 15.3M
Bit Rate : 320k
Sample Encoding: MPEG audio (layer I, II or III)
Comments :
Title=Suicidal Salvation
Artist=Black Altar
Album=Suicidal Salvation
Tracknumber=2
Year=2013
Genre=Black Metal



Register


Go to the top of the page
  Insert nick Quick quote
+Quote Post
 
Start new topic
Replies (1 - 4)
post Nov 17 2013, 21:40:10
Post #2

Only Black Metal
**************
Group: Металариец
Posts: 3,177
Releases: 686
From: Львів
On Forums: 12 years 11 months
Thanks: 14874 time(s)
Ukraine


Вполне в традициях польского современного бм последних лет. Мощно, напористо, технично. Не дослушал ещё, но уже впечатления что на один раз.


Thanks:
(1) smes,
Go to the top of the page
  Insert nick Quick quote
+Quote Post
post Nov 18 2013, 09:01:45
Post #3

Necromancer
Group Icon
Group: Curation team
Posts: 11,046
Releases: 271
From: Зеленоград
On Forums: 14 years 8 months
Thanks: 8913 time(s)
Russian Federation


О, да. Суровая епэшка. (IMG:style_emoticons/default/true_black.gif)
Go to the top of the page
  Insert nick Quick quote
+Quote Post
post Nov 18 2013, 22:31:49
Post #4

Правь статус, ####!111
**************
Group: Металариец
Posts: 3,948
Releases: 1
From: Рейх
On Forums: 14 years 10 months
Thanks: 971 time(s)
Ukraine


Польша вообще радует за последнее время. Эпиха злая
Go to the top of the page
  Insert nick Quick quote
+Quote Post
post Apr 21 2021, 06:30:53
Post #5

Правь статус, ####!111
**************
Group: Металариец
Posts: 7,377
Releases: 165
From: URUGUAY
On Forums: 14 years 8 months
Thanks: 21805 time(s)
Uruguay


320
Register


Thanks:
Go to the top of the page
  Insert nick Quick quote
+Quote Post

Reply to this topicStart new topic
2 User(s) are reading this topic (2 Guests and 0 Anonymous Users)
0 Members:

 



- Lo-Fi Version Support form
Copyrights and abuse reports form
Time is now: 22nd June 2021 - 02:02:52