Welcome Guest ( Log In | Register )

Объявления

* gmail.com упорно продолжает считать почту с нас "unsolicited" и отбивает в том числе и письма активации, поэтому просьба использовать альтернативные почтовые ящики.
------------
* gmail.com continues reject all mail from us as "unsolicited" (activation mails too) therefore please use alternate mail servers.
> Лихосвет - Из Тьмы [ep] (2013), Atmospheric Black Metal (D4)
post Nov 17 2013, 16:26:52
Post #1

Thrash, Beer & Violence
**************
Group: Металариец
Posts: 5,503
Releases: 2771
From: Крестов Брод (Russland)
On Forums: 16 years 8 months
Thanks: 41306 time(s)
Russian Federation


(IMG:http://metalarea.org/images/audiocovers/2013_Nov/acov_tid212637_thumb.jpg)

*Artist: Лихосвет
*Album: Из Тьмы [ep]
*Year: 2013
*Genre: Atmospheric Black Metal
*Country: Russian Federation (IMG:http://metalarea.org/forum/style_images/flags/Russian%20Federation.png)
*Format: mp3@CBR320kbps
*Size: 86MB

Tracklist:
1. До Рассвета 07:28
2. Из Тьмы 06:19
3. Вальхалла 10:38
4. На Закате 08:18
******************************
Total playing time: 32:43

Preview 1
(IMG:http://metalarea.org/images/youtube.png)

Technical info
(IMG:http://metalarea.org/images/spectrogram/2013_Nov/cdef002108274b46b1419cdf56826f1a.png)
Input File: 02. Лихосвет - Из Тьмы.mp3
Channels : 2
Sample Rate : 44100
Precision : 16-bit
Duration : 00:06:18.55 = 16694143 samples = 28391.4 CDDA sectors
File Size : 18.1M
Bit Rate : 382k
Sample Encoding: MPEG audio (layer I, II or III)
Comments :
Title=Р?Р· РўСЊРјС‹
Artist=Лихосвет
Album=Р?Р·РўСЊРјС‹
Tracknumber=02
Year=2013
Genre=Black Metal



Register


Go to the top of the page
  Insert nick Quick quote
+Quote Post
 
Start new topic
Replies (1 - 3)
post Nov 17 2013, 18:46:35
Post #2

Девять Литров
*********
Group: Металариец
Posts: 994
Releases: 91
On Forums: 13 years 2 months
Thanks: 2313 time(s)
Unknown


ну так себе хотя что то есть)
Go to the top of the page
  Insert nick Quick quote
+Quote Post
post Nov 17 2013, 19:19:04
Post #3

Восемь Литров
********
Group: Металариец
Posts: 883
Releases: 8
On Forums: 12 years 10 months
Thanks: 670 time(s)
Russian Federation


Порадовало, хороший материал, даже очень.
Go to the top of the page
  Insert nick Quick quote
+Quote Post
post May 28 2022, 16:15:33
Post #4

Маньяк
**********
Group: Металариец
Posts: 1,131
Releases: 0
From: Warszawa
On Forums: 9 years 6 months
Thanks: 606 time(s)
Poland


320 kbps
Register


Thanks:
(1) kim666,
Go to the top of the page
  Insert nick Quick quote
+Quote Post

Reply to this topicStart new topic
2 User(s) are reading this topic (2 Guests and 0 Anonymous Users)
0 Members:

 



- Lo-Fi Version Support form
Copyrights and abuse reports form
Time is now: 20th June 2024 - 10:46:30