Welcome Guest ( Log In | Register )

Объявления

* gmail.com упорно продолжает считать почту с нас "unsolicited" и отбивает в том числе и письма активации, поэтому просьба использовать альтернативные почтовые ящики.
------------
* gmail.com continues reject all mail from us as "unsolicited" (activation mails too) therefore please use alternate mail servers.

> И неформату есть предел.

Рэп/хип-хоп/шансон/поп удаляются. Для них есть свои порталы.

 
Reply to this topicStart new topic
> Паяльник Сатаны - На Всю Жизнь (2013), Social Cybernoise
post Nov 19 2013, 00:31:03
Post #1

Социопат.Маргинал. Мизантроп.Нигилист. Перверзный нарциссист.
**************
Group: Металариец
Posts: 5,571
Releases: 666
From: Город-герой Ленинград
On Forums: 13 years 5 months
Thanks: 6553 time(s)
Russian Federation


(IMG:http://metalarea.org/images/audiocovers/2013_Nov/acov_tid212699_thumb.jpg)

*Artist: Паяльник Сатаны
*Album: На Всю Жизнь
*Year: 2013
*Genre: Social Cybernoise
*Country: Russian Federation (IMG:http://metalarea.org/forum/style_images/flags/Russian%20Federation.png)
*Format: mp3@CBR320kbps
*Size: 62MB

Tracklist:
01. Интро
02. Сдохните
03. Тебя Е***
04. Я Е** Стереотипы
05. Дрочи На Турник
06. 228 В Твоей Ж***
07. За Русь Обоссусь И Обосрусь
08. Твоя Мать - Бред Пьяного Хача, А Твой Отец Вылез Из Твоей Ж***
09. Поцелуй Моё Говно
10. Я Е**л Тебя, Е**л Со Всей Суки, Ты Сосала Мой Х**
11. Ты Не Умеешь Пить Ягуар
12. То, Что Я Высрал
13. Слезай С Турника, П****й Работать!
14. 14/88=0,15909090909090909090909090909091
15. Кидая Зигу Х***
16. sXe - Для Е******х
17. The Apocalypse Coming Out From My Dickhead
18. Я - Алкаш
19. Качалка Для Лохов, Онанизм И Компьютерные Игры Для Настоящих Пацанов
20. Я Дрочил В Твоём Туалете И Набрызгал На Ободок Унитаза
21. Наркотики - Для Неудачников
22. Я Насрал Тебе Под Дверь И Кончил На Ручку
23. Я По***ил, А Ты Продолжай Е**** Футбольный Мяч
24. Современные Девки Рожают Детей Ж***й
25. Ты Не Пустила Меня В Туалет И Мне Пришлось Срать За Твоим Домом, Сидя В Сугробе В Тапках, Подтираться Снегом, А Тебе Было По***, Что На Улице -29
26. Мне Нравится Блевать
27. Тюремный Ширпотреб
28. Кусок Туалетной Бумаги С Текстом "Бутырки"
29. Ты Любишь Её, Но Ты Не Знаешь, Что Я Е**л Её И Что Она Сосала Мой Х** Пока Ты Работал
30. Как Ты Можешь Жить После Этого?
******************************
Total playing time: 27:27

Technical info
(IMG:http://metalarea.org/images/spectrogram/2013_Nov/74ab9d86843e18340b7e0fabba5acdd3.png)
Input File: 02 Сдохните.mp3
Channels : 2
Sample Rate : 44100
Precision : 16-bit
Duration : 00:01:13.44 = 3238704 samples = 5508 CDDA sectors
File Size : 2.94M
Bit Rate : 320k
Sample Encoding: MPEG audio (layer I, II or III)
Comments :
Title=Ñäîõíèòå
Artist=Ïàÿëüíèê Ñàòàíû
Album=Íà Âñþ Æèçíü
Tracknumber=2
Year=2013
Genre=Social Cybernoise

Register


Thanks:
(1) Necroalex,
Go to the top of the page
  Insert nick Quick quote
+Quote Post

Reply to this topicStart new topic
1 User(s) are reading this topic (1 Guests and 0 Anonymous Users)
0 Members:

 



- Lo-Fi Version Support form
Copyrights and abuse reports form
Time is now: 14th July 2024 - 15:06:46