Welcome Guest ( Log In | Register )

Объявления

* gmail.com упорно продолжает считать почту с нас "unsolicited" и отбивает в том числе и письма активации, поэтому просьба использовать альтернативные почтовые ящики.
------------
* gmail.com continues reject all mail from us as "unsolicited" (activation mails too) therefore please use alternate mail servers.
> Scars Of Armageddon - Never Sleep Again (2013), Power/Thrash Metal
post Nov 20 2013, 16:06:59
Post #1

Serial Uploader
Group Icon
Group: V.I.P
Posts: 42,802
Releases: 40865
From: Lithuania
On Forums: 16 years 2 weeks
Thanks: 524262 time(s)
Lithuania


(IMG:http://metalarea.org/images/audiocovers/2013_Nov/acov_tid212825_thumb.jpg)

*Artist: Scars Of Armageddon
*Album: Never Sleep Again
*Year: 2013
*Genre: Power/Thrash Metal
*Country: United States (IMG:http://metalarea.org/forum/style_images/flags/United%20States.png)
*Format: mp3@CBR320kbps
*Size: 102MB

Tracklist:
01. Never Sleep Again 04:57
02. Our Dying Day 07:08
03. Nuclear Christ Elves 05:45
04. The Return 06:41
05. Edge Of Darkness 09:08
06. Versus God 06:07
******************************
Total playing time: 39:46

(IMG:http://metalarea.org/images/youtube.png)

Technical info
(IMG:http://metalarea.org/images/spectrogram/2013_Nov/8181ebdbb000938f48ef8684b61d70ea.png)
Input File: 03. Nuclear Christ Elves.mp3
Channels : 2
Sample Rate : 44100
Precision : 16-bit
Duration : 00:05:45.19 = 15222923 samples = 25889.3 CDDA sectors
File Size : 14.5M
Bit Rate : 336k
Sample Encoding: MPEG audio (layer I, II or III)
Comments :
Title=Nuclear Christ Elves
Artist=Scars of Armageddon
Album=Never Sleep Again
Tracknumber=3/6
Year=2013



Register


Go to the top of the page
  Insert nick Quick quote
+Quote Post
 
Start new topic
Replies (1 - 7)
post Nov 20 2013, 17:57:01
Post #2

Восемь Литров
********
Group: Металариец
Posts: 811
Releases: 94
On Forums: 12 years 7 months
Thanks: 2674 time(s)
Canada


Register


Thanks:
Go to the top of the page
  Insert nick Quick quote
+Quote Post
post Nov 20 2013, 20:15:48
Post #3

Маньяк
**********
Group: Металариец
Posts: 1,230
Releases: 101
From: 56°24′00″ с. ш. 61°56′00″ в. д.
On Forums: 17 years 6 months
Thanks: 2275 time(s)
Russian Federation


Оказали на них влияние Iced Earth и Iron Maiden, группа пишет.




youtube.com
Go to the top of the page
  Insert nick Quick quote
+Quote Post
post Dec 7 2013, 11:59:11
Post #4

Три Литра
***
Group: Завсегдатай
Posts: 251
Releases: 0
From: Odessa
On Forums: 16 years 5 months
Thanks: 55 time(s)
Ukraine


Комментариев нет, а альбом то отличный! Крепкий и разнообразный материал. К слову влияния Iced Earth и Iron Maiden особо не слышно, но это даже к лучшему.
8/10
Go to the top of the page
  Insert nick Quick quote
+Quote Post
post Jun 3 2016, 21:05:49
Post #5

_ - = # Thrashogolic # = - _ ... а давайте поржём все вместе
**************
Group: Металариец
Posts: 22,645
Releases: 4444
From: 404
On Forums: 14 years 6 days
Thanks: 29282 time(s)
Ukraine



прослушаю-ка я его, но сомневаюсь в наличии трэша (IMG:style_emoticons/default/hmm.gif)


Thanks:
(2) wgs73, Yarri,
Go to the top of the page
  Insert nick Quick quote
+Quote Post
post Jun 15 2016, 09:43:39
Post #6

21st Century Schizoid Man
**************
Group: Металариец
Posts: 8,509
Releases: 336
From: 1984
On Forums: 16 years 1 month
Thanks: 9581 time(s)
Unknown


Хороший альбом. (IMG:style_emoticons/default/20.gif)
Go to the top of the page
  Insert nick Quick quote
+Quote Post
post Apr 11 2021, 07:20:58
Post #7

Пять Литров
*****
Group: Металариец
Posts: 432
Releases: 0
From: Russian Federation
On Forums: 17 years 9 months
Thanks: 127 time(s)
Russian Federation


Thank you very much, but unfortunately the link is no longer available (IMG:style_emoticons/default/6.gif)
Can anyone help?
Go to the top of the page
  Insert nick Quick quote
+Quote Post
post Apr 16 2021, 06:38:11
Post #8

Правь статус, ####!111
Group Icon
Group: S-moderation team
Posts: 22,058
Releases: 1443
On Forums: 13 years 3 months
Thanks: 128272 time(s)
Unknown


Register


Thanks:
Go to the top of the page
  Insert nick Quick quote
+Quote Post

Reply to this topicStart new topic
2 User(s) are reading this topic (2 Guests and 0 Anonymous Users)
0 Members:

 



- Lo-Fi Version Support form
Copyrights and abuse reports form
Time is now: 21st June 2024 - 08:46:24