Welcome Guest ( Log In | Register )

Объявления

* gmail.com упорно продолжает считать почту с нас "unsolicited" и отбивает в том числе и письма активации, поэтому просьба использовать альтернативные почтовые ящики.
------------
* gmail.com continues reject all mail from us as "unsolicited" (activation mails too) therefore please use alternate mail servers.
> Caladmor - Of Stones And Stars (2013), Folk/Gothic Metal
post Nov 21 2013, 13:27:41
Post #1

Serial Uploader
Group Icon
Group: V.I.P
Posts: 42,802
Releases: 40865
From: Lithuania
On Forums: 16 years 2 weeks
Thanks: 524261 time(s)
Lithuania


(IMG:http://metalarea.org/images/audiocovers/2013_Nov/acov_tid212895_thumb.jpg)

*Artist: Caladmor
*Album: Of Stones And Stars
*Year: 2013
*Genre: Folk/Gothic Metal
*Country: Switzerland (IMG:http://metalarea.org/forum/style_images/flags/Switzerland.png)
*Format: mp3@CBR320kbps
*Size: 118MB

Tracklist:
01. Curse Of The Gods 04:15
02. The Raid 04:51
03. Of Stones And Stars 04:34
04. Dawn Of The Deceiver 05:08
05. Alvíssmál 06:29
06. Laudine´s Lament 04:03
07. Mimirs Born 05:20
08. A Nymph´s Lure 05:27
09. Heralds Of Doom 04:48
10. Taberna Trollis 03:40
11. Helios Sky 02:32
******************************
Total playing time: 51:07

(IMG:http://metalarea.org/images/myspace.png)


Technical info
(IMG:http://metalarea.org/images/spectrogram/2013_Nov/e99caccca18b9c4f338001defb13d9f1.png)
Input File: 02. The Raid.mp3
Channels : 2
Sample Rate : 44100
Precision : 16-bit
Duration : 00:04:51.79 = 12868027 samples = 21884.4 CDDA sectors
File Size : 11.8M
Bit Rate : 324k
Sample Encoding: MPEG audio (layer I, II or III)
Comments :
Title=The Raid
Artist=Caladmor
Album=Of Stones And Stars
Tracknumber=2/11
Year=2013



Register


Go to the top of the page
  Insert nick Quick quote
+Quote Post
 
Start new topic
Replies (1 - 4)
post Nov 21 2013, 17:34:58
Post #2

Восемь Литров
********
Group: Металариец
Posts: 811
Releases: 94
On Forums: 12 years 7 months
Thanks: 2674 time(s)
Canada


Register


Thanks:
Go to the top of the page
  Insert nick Quick quote
+Quote Post
post Dec 1 2013, 15:49:38
Post #3

Перевозчик
**************
Group: Металариец
Posts: 3,635
Releases: 0
On Forums: 15 years 11 months
Thanks: 803 time(s)
Russian Federation


А ничего так местами.



Thanks:
Go to the top of the page
  Insert nick Quick quote
+Quote Post
post Dec 1 2013, 18:01:32
Post #4

No More Tears
**************
Group: Металариец
Posts: 5,014
Releases: 114
From: Тбилиси, Грузия
On Forums: 17 years 11 months
Thanks: 2452 time(s)
Georgia


Не могу себя избавить от того, чтобы имя этой группы не напоминала мне нехорошую вещь: Голодамор.
Да и музыка на очень-то меня вдохновляет.
Go to the top of the page
  Insert nick Quick quote
+Quote Post
post Dec 27 2013, 11:06:46
Post #5

Правь статус, ####!111
**************
Group: Металариец
Posts: 2,524
Releases: 6
From: Kyiv
On Forums: 16 years 7 months
Thanks: 326 time(s)
Ukraine


Участие Glanzamanna из Eluveitie пошло на пользу этому коллективу.
Go to the top of the page
  Insert nick Quick quote
+Quote Post

Reply to this topicStart new topic
2 User(s) are reading this topic (2 Guests and 0 Anonymous Users)
0 Members:

 



- Lo-Fi Version Support form
Copyrights and abuse reports form
Time is now: 21st June 2024 - 08:35:31