Welcome Guest ( Log In | Register )

> И неформату есть предел.

Рэп/хип-хоп/шансон/поп удаляются. Для них есть свои порталы.

> Садко - Клич (The Call) (2013), Ballads
post Nov 22 2013, 08:09:30
Post #1

Правь статус, ####!111
**************
Group: Металариец
Posts: 2,291
Releases: 1011
From: Гиперборе́я
On Forums: 10 years 7 months
Thanks: 21911 time(s)
Russian Federation


(IMG:http://metalarea.org/images/audiocovers/2013_Nov/acov_tid212938_thumb.jpg)

*Artist: Садко
*Album: Клич (The Call)
*Year: 2013
*Genre: Ballads
*Country: Russian Federation (IMG:http://metalarea.org/forum/style_images/flags/Russian%20Federation.png)
*Format: mp3@CBR320kbps
*Size: 90MB

Tracklist:
01. Intro 01:12
02. Клич 04:40
03. Дружина 04:01
04. Мы Идем 02:57
05. Казачья 02:44
06. Where Iron Eagles Fly (Aryan Cover) 04:05
07. White Blues (Ian & Stigger Cover) 02:48
08. Arthurian Spirit (Warlord Cover) 04:50
09. Витязи 04:01
10. Oчi Сповненi Гнiву (Сокира Перуна Cover) 05:20
11. Рядом Тебя Нет 02:48
******************************
Total playing time: 39:26

(IMG:http://metalarea.org/images/youtube.png)

Technical info
(IMG:http://metalarea.org/images/spectrogram/2013_Nov/1dc9d8358be4b0d21e3845c22cf27b4d.png)
Input File: 02 - Клич.mp3
Channels : 2
Sample Rate : 44100
Precision : 16-bit
Duration : 00:04:41.03 = 12393335 samples = 21077.1 CDDA sectors
File Size : 11.3M
Bit Rate : 321k
Sample Encoding: MPEG audio (layer I, II or III)
Comments :
Title=Клич
Artist=Садко
Album=Клич (The Call)
Tracknumber=02/11
Year=2013
Genre=Ballads



Register


Go to the top of the page
  Insert nick Quick quote
+Quote Post
 
Start new topic
Replies (1 - 7)
post Nov 22 2013, 09:19:19
Post #2

YGG
***********
Group: Металариец
Posts: 1,764
Releases: 33
From: Харьков
On Forums: 14 years 3 months
Thanks: 3127 time(s)
Ukraine


Шикарный альбом!!Уже пару дней слушаю (IMG:style_emoticons/default/smile1.gif)


Thanks:
Go to the top of the page
  Insert nick Quick quote
+Quote Post
post Nov 22 2013, 09:29:32
Post #3

Сектант технодро4чер
**************
Group: Металариец
Posts: 5,581
Releases: 143
From: Тимчасово окупована територія
On Forums: 12 years 10 months
Thanks: 5952 time(s)
Ukraine


Неплохая музыка, но облога... (IMG:style_emoticons/default/12.gif)


Thanks:
Go to the top of the page
  Insert nick Quick quote
+Quote Post
post Nov 22 2013, 11:28:05
Post #4

Маньяк
**********
Group: Металариец
Posts: 1,018
Releases: 0
From: Russia
On Forums: 13 years 8 months
Thanks: 68 time(s)
Russian Federation


Хорошие отзывы на отечественных исполнителей, опачки!


Thanks:
Go to the top of the page
  Insert nick Quick quote
+Quote Post
post Nov 22 2013, 11:41:20
Post #5

Котеги! Нравяцо котеги?
**************
Group: Металариец
Posts: 6,866
Releases: 0
From: Терра Инкогнита
On Forums: 11 years 3 weeks
Thanks: 3207 time(s)
Russian Federation


обычный старославянский сёрфер, хз чё не вам не нравится


Thanks:
Go to the top of the page
  Insert nick Quick quote
+Quote Post
post Nov 25 2013, 00:03:09
Post #6

Два Литра
**
Group: Завсегдатай
Posts: 185
Releases: 0
From: Odessa
On Forums: 13 years 5 months
Thanks: 43 time(s)
Ukraine


Рассчитывал на что-то фолковое, но увы. Попсово и неинтересно - обычная эстрада. А мелодия Intro сворована из старого м/ф "The Flight of Dragons" (IMG:style_emoticons/default/21.gif)
Go to the top of the page
  Insert nick Quick quote
+Quote Post
post Nov 25 2013, 05:42:36
Post #7

Маньяк
**********
Group: Металариец
Posts: 1,295
Releases: 1
From: Беларусь
On Forums: 13 years 5 months
Thanks: 548 time(s)
Russian Federation


в принципе ожидаемо - по олдскульному балладному раку.
Go to the top of the page
  Insert nick Quick quote
+Quote Post
post Nov 25 2013, 07:12:43
Post #8

Четыре Литра
****
Group: Металариец
Posts: 301
Releases: 1
On Forums: 11 years 9 months
Thanks: 92 time(s)
Unknown


настоящий north coast surf не все поймут. попробуй-ка в кольчуге на пятидесятой доске порассекать. да и акул нет.
Go to the top of the page
  Insert nick Quick quote
+Quote Post

Reply to this topicStart new topic
2 User(s) are reading this topic (2 Guests and 0 Anonymous Users)
0 Members:

 



- Lo-Fi Version Support form
Copyrights and abuse reports form
Time is now: 22nd June 2021 - 12:40:51