Welcome Guest ( Log In | Register )

Объявления

* gmail.com упорно продолжает считать почту с нас "unsolicited" и отбивает в том числе и письма активации, поэтому просьба использовать альтернативные почтовые ящики.
------------
* gmail.com continues reject all mail from us as "unsolicited" (activation mails too) therefore please use alternate mail servers.
> Switchblade - Heavy Weapons (2013), Heavy Metal (D)
post Dec 17 2013, 19:14:55
Post #1

Аннигилятор пивА
Group Icon
Group: V.I.P
Posts: 52,567
Releases: 16538
From: Koenigsberg - TILZIT
On Forums: 17 years 11 months
Thanks: 371923 time(s)
Russian Federation


(IMG:http://metalarea.org/images/audiocovers/2013_Dec/acov_tid214973_thumb.jpg)

*Artist: Switchblade
*Album: Heavy Weapons
*Year: 2013
*Genre: Heavy Metal
*Country: Israel (IMG:http://metalarea.org/forum/style_images/flags/Israel.png)
*Format: mp3@CBR320kbps
*Size: 93MB

Tracklist:
01. Heavy Weapons
02. Euphoria
03. Metalista
04. Lost Lovers Unite
05. The Lost Kingdom (Instrumental)
06. Infernal Paradise
07. Curse Of The Father, Sins Of The Son
08. Into The Unknown
09. Endless War
******************************
Total playing time: 38:56



Extended info
Lior "Steinmetal" Stein - Vocals
Fede "FedeRock" Taich - Lead / Rhythm Guitars
Venedict Pavlovic - Rhythm / Lead Guitars
Boris Siper - Bass
Moshe "Moshpit" Sabah - Drums
"SWITCHBLADE are resurrecting the mighty 80'es era of metal while often reminding IRON MAIDEN with Bruce Dickinson at the helm, huge, powerful sawing riffs a'la ACCEPT and spreading catchy choruses. All are the cornerstones of a brilliant album. Another top album of tradtional heavy metal which soon will find a lot of fans!"
'killermetalrecords'



Technical info
(IMG:http://metalarea.org/images/spectrogram/2013_Dec/5f3b0ab9d46ac5e8f34e30e56064ba6c.png)
Input File: 02. Euphoria.mp3
Channels : 2
Sample Rate : 44100
Precision : 16-bit
Duration : 00:05:02.48 = 13339236 samples = 22685.8 CDDA sectors
File Size : 12.2M
Bit Rate : 323k
Sample Encoding: MPEG audio (layer I, II or III)
Comments :
Title=Euphoria
Artist=Switchblade
Album=Heavy Weapons
Tracknumber=02/09
Year=2013
Genre=Heavy Metal
Discnumber=1/1



Register


Go to the top of the page
  Insert nick Quick quote
+Quote Post
 
Start new topic
Replies (1 - 4)
post Dec 17 2013, 20:52:33
Post #2

Восемь Литров
********
Group: Металариец
Posts: 811
Releases: 94
On Forums: 12 years 6 months
Thanks: 2673 time(s)
Canada


Register


Thanks:
Go to the top of the page
  Insert nick Quick quote
+Quote Post
post Dec 21 2013, 12:24:10
Post #3

Перевозчик
**************
Group: Металариец
Posts: 3,626
Releases: 0
On Forums: 15 years 10 months
Thanks: 801 time(s)
Russian Federation


Таки неплохо играют. (IMG:style_emoticons/default/1488.gif)
Go to the top of the page
  Insert nick Quick quote
+Quote Post
post Apr 27 2015, 14:38:59
Post #4

_ - = # Thrashogolic # = - _ ... а давайте поржём все вместе
**************
Group: Металариец
Posts: 22,363
Releases: 4444
From: 404
On Forums: 13 years 11 months
Thanks: 29099 time(s)
Ukraine


Go to the top of the page
  Insert nick Quick quote
+Quote Post
post Apr 27 2015, 23:03:53
Post #5

Going home. Flying high.
**************
Group: Металариец
Posts: 13,612
Releases: 0
From: The Land of Shadows
On Forums: 17 years 9 months
Thanks: 32833 time(s)
Russian Federation


Register


Thanks:
(1) varlam4,
Go to the top of the page
  Insert nick Quick quote
+Quote Post

Reply to this topicStart new topic
2 User(s) are reading this topic (2 Guests and 0 Anonymous Users)
0 Members:

 



- Lo-Fi Version Support form
Copyrights and abuse reports form
Time is now: 21st May 2024 - 08:05:08