Welcome Guest ( Log In | Register )

> Всполох & Вихрь - У камней замшелых... (Amongst Mossy Stones...) [split] (2013), Pagan/Black Metal | Black Metal
post Dec 17 2013, 21:04:12
Post #1

YGG
***********
Group: Металариец
Posts: 1,764
Releases: 33
From: Харьков
On Forums: 14 years 2 months
Thanks: 3127 time(s)
Ukraine


(IMG:http://metalarea.org/images/audiocovers/2013_Dec/acov_tid214978.jpg)

*Artist: Всполох & Вихрь
*Album: У камней замшелых... (Amongst Mossy Stones...) [split]
*Year: 2013
*Genre: Pagan/Black Metal | Black Metal
*Country: Russian Federation (IMG:http://metalarea.org/forum/style_images/flags/Russian%20Federation.png) | Russian Federation (IMG:http://metalarea.org/forum/style_images/flags/Russian%20Federation.png)
*Format: mp3@CBR320kbps
*Size: 131MB

Tracklist:
Vspolokh:
1. I 01:13
2. II (re-recorded version of Сумерки from demo) 5:34
3. III 09:35
4. IV (YGG "Ritual" cover) 11:00
5. V 09:28
Вихрь:
6. VI 03:07
7. VII 07:21
8. VIII 06:59
9. IX 06:03
10. X 02:47
******************************
Total playing time: 1:03:07

(IMG:http://metalarea.org/images/youtube.png)

Technical info
(IMG:http://metalarea.org/images/spectrogram/2013_Dec/8d358bc6ac835abdf8f142297156bed5.png)
Input File: 1.Vspolokh - I ( instrumental).mp3
Channels : 2
Sample Rate : 44100
Precision : 16-bit
Duration : 00:01:12.75 = 3208275 samples = 5456.25 CDDA sectors
File Size : 2.91M
Bit Rate : 320k
Sample Encoding: MPEG audio (layer I, II or III)



Register


Go to the top of the page
  Insert nick Quick quote
+Quote Post
 
Start new topic
Replies (1 - 8)
post Dec 17 2013, 23:05:39
Post #2

Два Литра
**
Group: Завсегдатай
Posts: 176
Releases: 17
On Forums: 7 years 11 months
Thanks: 334 time(s)
Unknown


Огромное спасибо!
Go to the top of the page
  Insert nick Quick quote
+Quote Post
post Dec 18 2013, 04:28:21
Post #3

Два Литра
**
Group: Завсегдатай
Posts: 173
Releases: 15
On Forums: 9 years 6 months
Thanks: 445 time(s)
Russian Federation


Весьма ждал.
А пока ко мне идет кругляш, послушаю в мп3
Go to the top of the page
  Insert nick Quick quote
+Quote Post
post Dec 18 2013, 05:49:39
Post #4

schwarzmetall
**********
Group: Металариец
Posts: 1,263
Releases: 0
From: Morningside
On Forums: 11 years 4 months
Thanks: 1676 time(s)
Unknown


такое ощущение, что каждый рифф из превью я слышал раньше уже раз по 20
по мне, так банальщина сквозит в каждой ноте... все подобные коллективы являются калькой друг друга - однотипные "эпические" мелодии и, зачастую, надрывный вокал "под старого Варга"
ноги растут из проектов ББХ. их наследие многие эксплуатируют, только вот никак приблизиться к своим идолам не могут - глубины не хватает.
всё таки в ББХ присутствовал Дух Мистического. да и мелодии у последователей послабее будут...
но не исключаю, что многим понравится.


Thanks:
Go to the top of the page
  Insert nick Quick quote
+Quote Post
post Dec 18 2013, 07:52:11
Post #5

Only Black Metal
**************
Group: Металариец
Posts: 3,177
Releases: 686
From: Львів
On Forums: 12 years 11 months
Thanks: 14874 time(s)
Ukraine


Eichmann, ты их прошлые релизы слушал? Там тоже самое. Очень характерное явление.
Go to the top of the page
  Insert nick Quick quote
+Quote Post
post Dec 18 2013, 08:26:10
Post #6

El Kulto, la Bestia y la Muerte
*********
Group: Металариец
Posts: 940
Releases: 120
From: Cursed Land
On Forums: 10 years 8 months
Thanks: 2862 time(s)
Unknown


Убожество какое-то. Дёр риффов с Vinterriket, вокал пьяной собаки и общий безрадостно-каловый фон.


Thanks:
Go to the top of the page
  Insert nick Quick quote
+Quote Post
post Dec 20 2013, 08:24:37
Post #7

Литр
*
Group: Подсевший
Posts: 62
Releases: 0
From: Киев
On Forums: 10 years 2 days
Thanks: 15 time(s)
Ukraine


(IMG:style_emoticons/default/20.gif)
Go to the top of the page
  Insert nick Quick quote
+Quote Post
post Dec 23 2013, 13:23:30
Post #8

Три Литра
***
Group: Завсегдатай
Posts: 233
Releases: 0
From: Ukrain
On Forums: 14 years 2 months
Thanks: 28 time(s)
Ukraine


В любом случае интересно послушать кавер на YGG.
Go to the top of the page
  Insert nick Quick quote
+Quote Post
post Dec 25 2019, 20:44:43
Post #9

Правь статус, ####!111
**************
Group: Металариец
Posts: 4,800
Releases: 1472
From: Brazil
On Forums: 9 years 4 months
Thanks: 55017 time(s)
Brazil


Register

mp3@CBR320kbps


Thanks:
Go to the top of the page
  Insert nick Quick quote
+Quote Post

Reply to this topicStart new topic
2 User(s) are reading this topic (2 Guests and 0 Anonymous Users)
0 Members:

 



- Lo-Fi Version Support form
Copyrights and abuse reports form
Time is now: 18th June 2021 - 13:01:33