Welcome Guest ( Log In | Register )

> Leichenzug - Pfaffenschwein [ep] (2013), Black Metal
post Dec 27 2013, 12:52:39
Post #1

Serial Uploader
Group Icon
Group: V.I.P
Posts: 38,972
Releases: 37108
From: Lithuania
On Forums: 14 years 3 months
Thanks: 463715 time(s)
Lithuania


(IMG:https://metalarea.org/images/audiocovers/2013_Dec/acov_tid215485_thumb.jpeg)

*Artist: Leichenzug
*Album: Pfaffenschwein [ep]
*Year: 2013
*Genre: Black Metal
*Country: Germany (IMG:https://metalarea.org/forum/style_images/flags/Germany.png)
*Format: mp3@VBR264kbps
*Size: 59MB

Tracklist:
01. Pfaffenschwein 04:02
02. Das Reich Zerfällt (Primordial Cover) 08:03
03. Infiziert 04:31
04. Was Einst War (Burzum Cover) 14:35
******************************
Total playing time: 31:11

(IMG:https://metalarea.org/images/myspace.png)

(IMG:https://metalarea.org/images/youtube.png)

Extended info
(IMG:http://metalarea.org/images/spectrogram/2013_Dec/9cefcbab2a82e14d9cc7a03e1c1c00e4.png)
Input File: 03-leichenzug-infiziert-berc.mp3
Channels : 2
Sample Rate : 44100
Precision : 16-bit
Duration : 00:04:31.54 = 11975002 samples = 20365.6 CDDA sectors
File Size : 8.90M
Bit Rate : 262k
Sample Encoding: MPEG audio (layer I, II or III)
Comments :
Title=Infiziert
Artist=Leichenzug
Album=Pfaffenschwein
Tracknumber=3/4
Year=2013
Genre=Black Metal


Register


Go to the top of the page
  Insert nick Quick quote
+Quote Post
 
Start new topic
Replies (1 - 4)
post Dec 27 2013, 15:46:11
Post #2

Четыре Литра
****
Group: Металариец
Posts: 347
Releases: 108
On Forums: 13 years 5 months
Thanks: 2819 time(s)
Russian Federation


Here is it in 320 kbps
Leichenzug - Pfaffenschwein [ep] (2013)


Go to the top of the page
  Insert nick Quick quote
+Quote Post
post Jan 23 2014, 14:38:55
Post #3

Правь статус, ####!111
**************
Group: Металариец
Posts: 4,181
Releases: 1
From: Рейх
On Forums: 16 years 1 month
Thanks: 1010 time(s)
Ukraine


Ковер на Burzum прям в один в один, очень здорово, ну и на Primordial отлично! Сначала даже подумал, что реальный закос под Primordial, а потом посмотрел и увидел, что это Ковер.
Go to the top of the page
  Insert nick Quick quote
+Quote Post
post Mar 24 2017, 23:53:45
Post #4
BAN
Banned till
Oct 28 2022, 11:23:25



Reupload please!
Go to the top of the page
  Insert nick Quick quote
+Quote Post
post Mar 25 2017, 03:41:58
Post #5

Satan Soldier
**************
Group: Металариец
Posts: 2,240
Releases: 603
From: IN HELL
On Forums: 9 years 8 months
Thanks: 15255 time(s)
France


320 kbps
Register


Go to the top of the page
  Insert nick Quick quote
+Quote Post

Reply to this topicStart new topic
1 User(s) are reading this topic (1 Guests and 0 Anonymous Users)
0 Members:

 



- Lo-Fi Version Support form
Copyrights and abuse reports form
Time is now: 3rd October 2022 - 02:09:13