Welcome Guest ( Log In | Register )

Объявления

* gmail.com упорно продолжает считать почту с нас "unsolicited" и отбивает в том числе и письма активации, поэтому просьба использовать альтернативные почтовые ящики.
------------
* gmail.com continues reject all mail from us as "unsolicited" (activation mails too) therefore please use alternate mail servers.
> Eternal Oblivion - The Realms Of Darkness [ep] (2013), Old School Thrash/Death Metal
post Dec 30 2013, 06:54:02
Post #1

Аннигилятор пивА
Group Icon
Group: V.I.P
Posts: 52,563
Releases: 16538
From: Koenigsberg - TILZIT
On Forums: 17 years 10 months
Thanks: 371848 time(s)
Russian Federation


(IMG:http://metalarea.org/images/audiocovers/2013_Dec/acov_tid215628_thumb.jpg)

*Artist: Eternal Oblivion
*Album: The Realms Of Darkness [ep]
*Year: 2013
*Genre: Old School Thrash/Death Metal
*Country: United States (IMG:http://metalarea.org/forum/style_images/flags/United%20States.png)
*Format: mp3@CBR320kbps
*Size: 51MB

Tracklist:
01. Lifetaker 03:29
02. Problems 04:20
03. Morals 04:30
04. Cannibal 05:04
05. Crusade 03:28
******************************
Total playing time: 20:51



Technical info
(IMG:http://metalarea.org/images/spectrogram/2013_Dec/697a713fac2fca66acc78f85a0e8f6b6.png)
Input File: Eternal Oblivion - The Realms of Darkness - 02 Problems.mp3
Channels : 2
Sample Rate : 44100
Precision : 16-bit
Duration : 00:04:20.99 = 11509659 samples = 19574.2 CDDA sectors
File Size : 10.7M
Bit Rate : 327k
Sample Encoding: MPEG audio (layer I, II or III)
Comments :
Title=Problems
Artist=Eternal Oblivion
Album=The Realms of Darkness
Tracknumber=2
Year=2013



Register


Go to the top of the page
  Insert nick Quick quote
+Quote Post
 
Start new topic
Replies (1 - 1)
post Dec 30 2013, 12:22:06
Post #2

Литр
*
Group: Подсевший
Posts: 69
Releases: 0
On Forums: 12 years 7 months
Thanks: 13 time(s)
Russian Federation


шикарный безкомпромиссный мощный материал!мощный звук,приблэкованный вокал,не нудные песни,все круто!!!


Thanks:
Go to the top of the page
  Insert nick Quick quote
+Quote Post

Reply to this topicStart new topic
2 User(s) are reading this topic (2 Guests and 0 Anonymous Users)
0 Members:

 



- Lo-Fi Version Support form
Copyrights and abuse reports form
Time is now: 25th April 2024 - 15:02:11