Welcome Guest ( Log In | Register )

Объявления

* gmail.com упорно продолжает считать почту с нас "unsolicited" и отбивает в том числе и письма активации, поэтому просьба использовать альтернативные почтовые ящики.
------------
* gmail.com continues reject all mail from us as "unsolicited" (activation mails too) therefore please use alternate mail servers.
> Gestalt - Demo '90 [demo] (1990), Thrash Metal
post Jan 6 2014, 02:19:51
Post #1

Подвал
**************
Group: Металариец
Posts: 20,490
Releases: 11761
From: Far East (Khabarovsk)
On Forums: 15 years 4 months
Thanks: 139704 time(s)
Russian Federation


(IMG:http://metalarea.org/images/audiocovers/2014_Jan/acov_tid216021_thumb.jpg)

*Artist: Gestalt
*Album: Demo '90 [demo]
*Year: 1990
*Genre: Thrash Metal
*Country: Japan (IMG:http://metalarea.org/forum/style_images/flags/Japan.png)
*Format: mp3@CBR320kbps
*Size: 26MB

Tracklist:
1. Life 05:42
2. Bleeded Technology 06:27
******************************
Total playing time: 12:09

Extended info
Bay area thrash metal style.


Technical info
(IMG:http://metalarea.org/images/spectrogram/2014_Jan/e5f69a74e945bf553fb670211f85b56e.png)
Input File: 01-Life.mp3
Channels : 2
Sample Rate : 44100
Precision : 16-bit
Duration : 00:05:42.68 = 15112012 samples = 25700.7 CDDA sectors
File Size : 13.7M
Bit Rate : 320k
Sample Encoding: MPEG audio (layer I, II or III)
Comments :
Title=Life
Artist=Gestalt
Album=Demo '90
Tracknumber=01
Year=1990
Genre=Thrash Metal



Register


Go to the top of the page
  Insert nick Quick quote
+Quote Post
 
Start new topic
Replies (1 - 2)
post Jun 27 2022, 17:05:15
Post #2

Подвал
**************
Group: Металариец
Posts: 20,490
Releases: 11761
From: Far East (Khabarovsk)
On Forums: 15 years 4 months
Thanks: 139704 time(s)
Russian Federation


new link:
Register


Go to the top of the page
  Insert nick Quick quote
+Quote Post
post Jun 27 2022, 18:51:03
Post #3

Два Литра
**
Group: Завсегдатай
Posts: 143
Releases: 0
On Forums: 6 years 2 months
Thanks: 190 time(s)
Unknown


This is best japanese thrash band i've ever heard. Thanks Proteus_666 for upload!


Thanks:
Go to the top of the page
  Insert nick Quick quote
+Quote Post

Reply to this topicStart new topic
2 User(s) are reading this topic (2 Guests and 0 Anonymous Users)
0 Members:

 



- Lo-Fi Version Support form
Copyrights and abuse reports form
Time is now: 14th June 2024 - 10:18:27