Welcome Guest ( Log In | Register )

> Miscreant - For The Living (2013), Death Metal (D7)
post Jan 21 2014, 11:57:21
Post #1

Аннигилятор пивА
Group Icon
Group: V.I.P
Posts: 52,360
Releases: 16550
From: Koenigsberg - TILZIT
On Forums: 14 years 3 months
Thanks: 366031 time(s)
Russian Federation


(IMG:http://metalarea.org/images/audiocovers/2014_Jan/acov_tid217093_thumb.jpg)

*Artist: Miscreant
*Album: For The Living
*Year: 2013
*Genre: Death Metal
*Country: Russian Federation (IMG:http://metalarea.org/forum/style_images/flags/Russian%20Federation.png)
*Format: mp3@CBR320kbps
*Size: 108MB

Tracklist:
1. Firestorm
2. Savage Terror (No One Shall Avoid Fear)
3. For Those Who Will Die
4. The Sect
5. World Necrology
6. Mass Executions
7. Evolution Of Violence
8. Tumour Monologue
9. Total Death Metal
******************************
Total playing time: 44:35




Extended info
+scans
Dead - Guitars
Dementy - Drums
Gosha - Vocals
Miki - Bass


Technical info
(IMG:http://metalarea.org/images/spectrogram/2014_Jan/a90cd96e8e3be36bb9fb1130bd35cda9.png)
Input File: 02 - Savage Terror (No One Shall Avoid Fear).mp3
Channels : 2
Sample Rate : 44100
Precision : 16-bit
Duration : 00:04:18.01 = 11378329 samples = 19350.9 CDDA sectors
File Size : 10.3M
Bit Rate : 320k
Sample Encoding: MPEG audio (layer I, II or III)
Comments :
Title=Savage Terror (No One Shall Avoid Fear)
Artist=Miscreant
Album=For The Living
Tracknumber=02
Year=2013



Register


Go to the top of the page
  Insert nick Quick quote
+Quote Post
 
Start new topic
Replies (1 - 8)
post Jan 21 2014, 13:32:13
Post #2

Аннигилятор пивА
Group Icon
Group: V.I.P
Posts: 52,360
Releases: 16550
From: Koenigsberg - TILZIT
On Forums: 14 years 3 months
Thanks: 366031 time(s)
Russian Federation


круто, че, можно техникал добавить (IMG:style_emoticons/default/smile1.gif) или прогрессив, все эти элементы в наличии, ну а в основе олдскульный жыр, шикарный альбом
Go to the top of the page
  Insert nick Quick quote
+Quote Post
post Jan 21 2014, 14:29:40
Post #3

Добрейшей души Мегаманьяк
***********
Group: Металариец
Posts: 1,691
Releases: 0
From: Bashkortostan, Өфө
On Forums: 12 years 7 months
Thanks: 782 time(s)
Russian Federation


Мы старались. Вот ещё вк до кучи http://vk.com/miscreantdeathmetal


Go to the top of the page
  Insert nick Quick quote
+Quote Post
post Jan 21 2014, 18:02:04
Post #4

Necromancer
Group Icon
Group: Curation team
Posts: 11,036
Releases: 271
From: Зеленоград
On Forums: 13 years 11 months
Thanks: 8883 time(s)
Russian Federation


Хм, информация об этом релизе на МастДайки весьма давно лежит и если верить, то штучка вкусная. (IMG:style_emoticons/default/hmm.gif) Так что, попробуем.
Go to the top of the page
  Insert nick Quick quote
+Quote Post
post Jan 22 2014, 05:30:38
Post #5

i listen to black metal
**************
Group: Металариец
Posts: 2,616
Releases: 132
From: Москва-Лианозово
On Forums: 13 years 8 months
Thanks: 2157 time(s)
Russian Federation


к такой музыке не такой голос нужен.
Go to the top of the page
  Insert nick Quick quote
+Quote Post
post Jan 22 2014, 06:19:41
Post #6

Grind the Human Scum
**********
Group: Металариец
Posts: 1,046
Releases: 18
On Forums: 13 years 8 months
Thanks: 1017 time(s)
Russian Federation


Очень порадовали эти ребята с Уфы, отличный альбом, материал (IMG:style_emoticons/default/metaler.gif)
Go to the top of the page
  Insert nick Quick quote
+Quote Post
post Jan 22 2014, 09:30:20
Post #7

Necromancer
Group Icon
Group: Curation team
Posts: 11,036
Releases: 271
From: Зеленоград
On Forums: 13 years 11 months
Thanks: 8883 time(s)
Russian Federation


Ну, в принципе, хорошая работа получилась. Крепко и плотно.
Go to the top of the page
  Insert nick Quick quote
+Quote Post
post May 9 2016, 01:20:23
Post #8

Going home. Flying high.
**************
Group: Металариец
Posts: 13,055
Releases: 0
From: The Land of Shadows
On Forums: 14 years 1 month
Thanks: 24843 time(s)
Russian Federation


from the web
Register


Thanks:
Go to the top of the page
  Insert nick Quick quote
+Quote Post
post Dec 18 2016, 18:58:56
Post #9

Добрейшей души Мегаманьяк
***********
Group: Металариец
Posts: 1,691
Releases: 0
From: Bashkortostan, Өфө
On Forums: 12 years 7 months
Thanks: 782 time(s)
Russian Federation


Сегодня три года как альбом вышел. Слушаю. Нравится.
Go to the top of the page
  Insert nick Quick quote
+Quote Post

Reply to this topicStart new topic
1 User(s) are reading this topic (1 Guests and 0 Anonymous Users)
0 Members:

 



- Lo-Fi Version Support form
Copyrights and abuse reports form
Time is now: 19th September 2020 - 09:15:43