Welcome Guest ( Log In | Register )

> Victim Path - Edges Of Insanity [single] (2013), Black Metal
post Jan 28 2014, 12:26:49
Post #1

Serial Uploader
Group Icon
Group: V.I.P
Posts: 42,048
Releases: 40118
From: Lithuania
On Forums: 15 years 8 months
Thanks: 511353 time(s)
Lithuania


(IMG:https://metalarea.org/images/audiocovers/2014_Jan/acov_tid217576_thumb.jpg)

*Artist: Victim Path
*Album: Edges Of Insanity [single]
*Year: 2013
*Genre: Black Metal
*Country: Belarus (IMG:https://metalarea.org/forum/style_images/flags/Belarus.png)
*Format: mp3@CBR320kbps
*Size: 10MB

Tracklist:
01. Edges Of Insanity 05:04
******************************
Total playing time: 5:04

(IMG:https://metalarea.org/images/myspace.png)

Preview 3


Technical info
(IMG:https://metalarea.org/images/spectrogram/2014_Jan/00c434f1c1eabe8577f749e81d7f0f17.png)
Input File: 01. Edges of Insanity.mp3
Channels : 2
Sample Rate : 44100
Precision : 16-bit
Duration : 00:05:05.01 = 13450721 samples = 22875.4 CDDA sectors
File Size : 12.2M
Bit Rate : 320k
Sample Encoding: MPEG audio (layer I, II or III)
Comments :
Title=Edges of Insaniry
Artist=Victim Path
Album=Edges of Insanity
Year=2013
Genre=Dark Metal



Register


Go to the top of the page
  Insert nick Quick quote
+Quote Post
 
Start new topic
Replies (1 - 1)
post Nov 15 2023, 11:39:18
Post #2

Правь статус, ####!111
**************
Group: Металариец
Posts: 6,135
Releases: 0
On Forums: 5 years 8 months
Thanks: 19602 time(s)
Russian Federation


11 mb/320 kbps
Register


Thanks:
(1) Wail,
Go to the top of the page
  Insert nick Quick quote
+Quote Post

Reply to this topicStart new topic
2 User(s) are reading this topic (2 Guests and 0 Anonymous Users)
0 Members:

 



- Lo-Fi Version Support form
Copyrights and abuse reports form
Time is now: 3rd March 2024 - 06:42:05