Welcome Guest ( Log In | Register )

> Impure Wilhelmina - Black Honey (2014), Post-Metal
post Feb 15 2014, 13:19:40
Post #1

Правь статус, ####!111
**************
Group: Металариец
Posts: 2,291
Releases: 1011
From: Гиперборе́я
On Forums: 10 years 8 months
Thanks: 21919 time(s)
Russian Federation


(IMG:http://metalarea.org/images/audiocovers/2014_Feb/acov_tid218692_thumb.jpg)

*Artist: Impure Wilhelmina
*Album: Black Honey
*Year: 2014
*Genre: Post-Metal
*Country: Switzerland (IMG:http://metalarea.org/forum/style_images/flags/Switzerland.png)
*Format: mp3@CBR320kbps
*Size: 147MB

Tracklist:
01. The Enemy 06:22
02. Submersible Words 04:21
03. Chest 05:12
04. Grand Gendarme 05:25
05. Black Horse 06:45
06. Joseph 05:26
07. Mute 02:32
08. Uncomfortable Life 05:31
09. Courageous 06:56
10. For The Man That I Love 02:44
11. God Rules His Empire 11:18
******************************
Total playing time: 1:02:32




Technical info
(IMG:http://metalarea.org/images/spectrogram/2014_Feb/cd2257ef3680ce5ecc8cfd4651b5eec1.png)
Input File: 04 - Grand Gendarme.mp3
Channels : 2
Sample Rate : 44100
Precision : 16-bit
Duration : 00:05:25.39 = 14349611 samples = 24404.1 CDDA sectors
File Size : 13.0M
Bit Rate : 321k
Sample Encoding: MPEG audio (layer I, II or III)
Comments :
Title=Grand Gendarme
Artist=Impure Wilhelmina
Album=Black Honey
Tracknumber=04/11
Year=2014
Genre=Post-Metal



Register


Go to the top of the page
  Insert nick Quick quote
+Quote Post
 
Start new topic
Replies (1 - 8)
post Feb 15 2014, 15:19:41
Post #2

Don't be negative.
**************
Group: Металариец
Posts: 2,907
Releases: 763
From: Earthmother
On Forums: 10 years 10 months
Thanks: 10331 time(s)
Ukraine


Просто шикарная работа. Давно такую годноту не выпускали.


Go to the top of the page
  Insert nick Quick quote
+Quote Post
post Feb 15 2014, 21:24:31
Post #3

Тридцать лет на борту "Тяжёлого" крейсера
**************
Group: Металариец
Posts: 2,633
Releases: 0
From: Питер
On Forums: 14 years 1 month
Thanks: 825 time(s)
Russian Federation


Весьма приятный релиз. И если бы не та занудность(и как следствие - однообразие),что свойствено всему post-metal/rock,то вообще было бы шикарно


Thanks:
Go to the top of the page
  Insert nick Quick quote
+Quote Post
post Feb 16 2014, 07:15:04
Post #4

кручу наждак
**************
Group: Металариец
Posts: 5,051
Releases: 104
From: Самара
On Forums: 11 years 2 months
Thanks: 4079 time(s)
Russian Federation


Согласен с первым каментом, альбом просто волшебный.


Go to the top of the page
  Insert nick Quick quote
+Quote Post
post Feb 16 2014, 08:14:12
Post #5

Group: Подсевший
Posts: 39
Releases: 0
From: Масквич
On Forums: 13 years 1 month
Thanks: 3 time(s)
Russian Federation


Очень даже,надо бы ноты почитать.


Thanks:
Go to the top of the page
  Insert nick Quick quote
+Quote Post
post Feb 17 2014, 16:26:36
Post #6

Vana Peerukott
**************
Group: Металариец
Posts: 3,115
Releases: 239
From: Київ, Україна
On Forums: 15 years 3 months
Thanks: 3103 time(s)
Ukraine


да, давненько я ничо годного в этом жанре не слышал


Go to the top of the page
  Insert nick Quick quote
+Quote Post
post Feb 17 2014, 23:10:26
Post #7

Правь статус, ####!111
**************
Group: Металариец
Posts: 49,020
Releases: 848
On Forums: 12 years 2 months
Thanks: 44085 time(s)
Russian Federation


А альбом и вправду шикарен. Раньше о ребятах не слышал, а тут - нате и вот тебе! Собственно, металла тут нет - чуть утяжелённый пост-рок с великолепным пост-панковским вокалом под Роберта Смита. Замечательно! Да, есть ранний пост панк, в настоящее время имеется, допустим, Soror Dolorosa. Но подобное сабжу слышу впервые. Стянул диско, буду ознакамливаться.


Thanks:
Go to the top of the page
  Insert nick Quick quote
+Quote Post
post Feb 21 2014, 12:55:24
Post #8

Два Литра
**
Group: Завсегдатай
Posts: 176
Releases: 0
On Forums: 13 years 8 months
Thanks: 59 time(s)
Ukraine


Альбом понравился, а Submersible Words, вообще бомба. Последние дни, только её и слушаю. Ещё бы отметил - Joseph, Courageous и For The Man That I Love.


Thanks:
Go to the top of the page
  Insert nick Quick quote
+Quote Post
post Jul 9 2017, 16:42:41
Post #9

ME[ta]LLOMAN
**************
Group: Металариец
Posts: 5,010
Releases: 3
From: Avdeyevka
On Forums: 15 years 3 months
Thanks: 2060 time(s)
Honduras


Register


Thanks:
(1) varlam4,
Go to the top of the page
  Insert nick Quick quote
+Quote Post

Reply to this topicStart new topic
2 User(s) are reading this topic (2 Guests and 0 Anonymous Users)
0 Members:

 



- Lo-Fi Version Support form
Copyrights and abuse reports form
Time is now: 2nd August 2021 - 13:06:34