Welcome Guest ( Log In | Register )

> Doctor Cyclops - Oscuropasso (2014), Doom Metal/Progressive Rock
post Feb 20 2014, 20:51:41
Post #1

Правь статус, ####!111
**************
Group: Металариец
Posts: 26,280
Releases: 18909
From: Г.Харьков
On Forums: 9 years 1 month
Thanks: 376535 time(s)
Unknown


(IMG:http://metalarea.org/images/audiocovers/2014_Feb/acov_tid218946_thumb.jpg)

*Artist: Doctor Cyclops
*Album: Oscuropasso
*Year: 2014
*Genre: Doom Metal/Heavy/Progressive Rock
*Country: Italy (IMG:http://metalarea.org/forum/style_images/flags/Italy.png)
*Format: mp3@CBR320kbps
*Size: 105MB

Tracklist:
01. Waterfalls 06:09
02. The Monk 09:59
03. Angel Saviour in the C.H. 06:50
04. Cobweb Hands 07:18
05. Rotten Trolls 15:49
******************************
Total playing time: 46:05




Technical info
(IMG:http://metalarea.org/images/spectrogram/2014_Feb/33570668c36f0a4178963b69f4720e03.png)
Input File: 02 The Monk.mp3
Channels : 2
Sample Rate : 44100
Precision : 16-bit
Duration : 00:10:01.22 = 26513582 samples = 45091.1 CDDA sectors
File Size : 24.0M
Bit Rate : 320k
Sample Encoding: MPEG audio (layer I, II or III)
Comments :
Title=The Monk
Artist=Doctor Cyclops
Album=Oscuropasso
Tracknumber=02/5
Year=2014
Genre=Rock
Discnumber=1/1



Register


Go to the top of the page
  Insert nick Quick quote
+Quote Post
 
Start new topic
Replies (1 - 3)
post Mar 6 2015, 16:10:00
Post #2

Шесть Литров
******
Group: Металариец
Posts: 667
Releases: 0
On Forums: 12 years 2 months
Thanks: 931 time(s)
Russian Federation


Интервью с Doctor Cyclops: http://www.metallibrary.ru/articles/interviews/556.html
Go to the top of the page
  Insert nick Quick quote
+Quote Post
post Apr 8 2021, 05:36:22
Post #3

Два Литра
**
Group: Завсегдатай
Posts: 167
Releases: 0
From: Russian Federation
On Forums: 14 years 9 months
Thanks: 3 time(s)
Russian Federation


Thank you very much, but unfortunately the link is no longer available (IMG:style_emoticons/default/6.gif)
Can anyone help?
Go to the top of the page
  Insert nick Quick quote
+Quote Post
post Apr 11 2021, 09:17:09
Post #4

Group Icon
Group: S-moderation team
Posts: 21,086
Releases: 1443
From: Zagreb
On Forums: 10 years 3 months
Thanks: 97110 time(s)
Croatia


Register


Thanks:
Go to the top of the page
  Insert nick Quick quote
+Quote Post

Reply to this topicStart new topic
1 User(s) are reading this topic (1 Guests and 0 Anonymous Users)
0 Members:

 



- Lo-Fi Version Support form
Copyrights and abuse reports form
Time is now: 12th June 2021 - 20:56:18