Welcome Guest ( Log In | Register )

> Southern Front - Seasons Of Hate [ep] (2012), Thrash/Groove Metal
post Mar 18 2014, 16:26:30
Post #1

Serial Uploader
Group Icon
Group: V.I.P
Posts: 37,609
Releases: 35781
From: Lithuania
On Forums: 13 years 1 month
Thanks: 433239 time(s)
Lithuania


(IMG:https://metalarea.org/images/audiocovers/2014_Mar/acov_tid220278_thumb.jpg)

*Artist: Southern Front
*Album: Seasons Of Hate [ep]
*Year: 2012
*Genre: Thrash/Groove Metal
*Country: United States (IMG:https://metalarea.org/forum/style_images/flags/United%20States.png)
*Format: mp3@CBR320kbps
*Size: 34MB

Tracklist:
01. Seasons Of Hate 03:56
02. Pale Face 03:34
03. Beerzerker 03:29
04. Pig For Nail 04:07
******************************
Total playing time: 15:06

(IMG:https://metalarea.org/images/myspace.png)





Technical info
(IMG:https://metalarea.org/images/spectrogram/2014_Mar/bbb4f0aa9094beb55d414948e2498889.png)
Input File: 02 - Pale Face.mp3
Channels : 2
Sample Rate : 44100
Precision : 16-bit
Duration : 00:03:34.54 = 9461214 samples = 16090.5 CDDA sectors
File Size : 8.59M
Bit Rate : 320k
Sample Encoding: MPEG audio (layer I, II or III)
Comments :
Title=Pale Face
Artist=Southern Front
Album=Seasons Of Hate (EP)
Tracknumber=2
Year=2012



Register


Go to the top of the page
  Insert nick Quick quote
+Quote Post
 
Start new topic
Replies (1 - 3)
post Jun 6 2021, 09:34:17    Сейчас играет: Re-up please ;-)
Post #2

Четыре Литра
****
Group: Металариец
Posts: 334
Releases: 0
From: Sofia
On Forums: 13 years 10 months
Thanks: 18 time(s)
Bulgaria


Please re-up (IMG:style_emoticons/default/pray.gif) (IMG:style_emoticons/default/pray.gif) (IMG:style_emoticons/default/pray.gif)
Go to the top of the page
  Insert nick Quick quote
+Quote Post
post Jun 12 2021, 04:28:20
Post #3

Group Icon
Group: S-moderation team
Posts: 21,539
Releases: 1443
From: Zagreb
On Forums: 10 years 5 months
Thanks: 100164 time(s)
Croatia


Register


Thanks:
Go to the top of the page
  Insert nick Quick quote
+Quote Post
post Jun 12 2021, 07:24:52
Post #4

Четыре Литра
****
Group: Металариец
Posts: 334
Releases: 0
From: Sofia
On Forums: 13 years 10 months
Thanks: 18 time(s)
Bulgaria


Thank you very much, sis Border ! (IMG:style_emoticons/default/dwarf-1.gif) (IMG:style_emoticons/default/dwarf-1.gif)

QUOTE(Borderline1991 @ Jun 12 2021, 03:28:20) *

Go to the top of the page
  Insert nick Quick quote
+Quote Post

Reply to this topicStart new topic
1 User(s) are reading this topic (1 Guests and 0 Anonymous Users)
0 Members:

 



- Lo-Fi Version Support form
Copyrights and abuse reports form
Time is now: 4th August 2021 - 12:27:24