Welcome Guest ( Log In | Register )

> Hortus Animae - Secular Music (2014), Progressive Black Metal (D5)
post Mar 24 2014, 10:14:25
Post #1

Правь статус, ####!111
**************
Group: Металариец
Posts: 26,055
Releases: 18704
From: Г.Харьков
On Forums: 9 years 6 days
Thanks: 370957 time(s)
Unknown


(IMG:http://metalarea.org/images/audiocovers/2014_Mar/acov_tid220598_thumb.jpg)

*Artist: Hortus Animae
*Album: Secular Music
*Year: 2014
*Genre: Progressive Black Metal
*Country: Italy (IMG:http://metalarea.org/forum/style_images/flags/Italy.png)
*Format: mp3@CBR320kbps
*Size: 129MB

Tracklist:
1. God and His Disgusting Children 07:18
2. Blood of the Earth / The Truth Against the World 07:43
3. Dystopian Apocalypse 06:29
4. At the End of Doomsday 11:23
5. The Poison of the Naga 08:43
6. Impromptu Op. II / Pain Relieved 03:58
7. Chamber of Endless Nightmares 06:53
8. Aqualung (Jethro Tull cover) 06:20
******************************
Total playing time: 58:47




Extended info


Technical info
(IMG:http://metalarea.org/images/spectrogram/2014_Mar/b02a09a933d0cf8c7732541949de3953.png)
Input File: 03. Dystopian Apocalypse.mp3
Channels : 2
Sample Rate : 44100
Precision : 16-bit
Duration : 00:06:30.10 = 17203410 samples = 29257.5 CDDA sectors
File Size : 15.6M
Bit Rate : 320k
Sample Encoding: MPEG audio (layer I, II or III)
Comments :
Title=Dystopian Apocalypse
Artist=Hortus Animae
Album=Secular Music
Tracknumber=3
Year=2014
Genre=Black Metal



Register


Go to the top of the page
  Insert nick Quick quote
+Quote Post
 
Start new topic
Replies (1 - 6)
post Mar 24 2014, 11:33:15
Post #2

Правь статус, ####!111
Group Icon
Group: V.I.P
Posts: 4,657
Releases: 318
On Forums: 10 years 3 months
Thanks: 13207 time(s)
Russian Federation


Охохохо. Кто разродился то релизом.

Круто, обязательно послушать.
Go to the top of the page
  Insert nick Quick quote
+Quote Post
post Mar 24 2014, 13:17:23
Post #3

Don't be negative.
**************
Group: Металариец
Posts: 2,888
Releases: 757
From: Earthmother
On Forums: 10 years 7 months
Thanks: 10238 time(s)
Ukraine


Какой-то мдм/металкор [мат->бан].
Go to the top of the page
  Insert nick Quick quote
+Quote Post
post Aug 20 2014, 12:29:48
Post #4

***********
Group: Металариец
Posts: 1,557
Releases: 16
From: Москва
On Forums: 14 years 5 months
Thanks: 2208 time(s)
Russian Federation


Невнятная мешанина...
Go to the top of the page
  Insert nick Quick quote
+Quote Post
post Aug 20 2014, 13:40:50
Post #5

Маньяк
**********
Group: Металариец
Posts: 1,022
Releases: 3
From: Симферополь, Республика Крым
On Forums: 13 years 10 months
Thanks: 234 time(s)
Russian Federation


Помницца Freezing Moon (Mayhem cover) они добротно замесили

Вердикт - на прослушку
Go to the top of the page
  Insert nick Quick quote
+Quote Post
post May 4 2021, 19:19:19
Post #6

Group: Подсевший
Posts: 18
Releases: 0
On Forums: 1 year 11 months
Thanks: 0 time(s)
Russian Federation


а есть альбом в lossles?
Go to the top of the page
  Insert nick Quick quote
+Quote Post
post May 6 2021, 05:32:40
Post #7

Group Icon
Group: S-moderation team
Posts: 20,829
Releases: 1443
From: Zagreb
On Forums: 10 years 2 months
Thanks: 95436 time(s)
Croatia


Register


Go to the top of the page
  Insert nick Quick quote
+Quote Post

Reply to this topicStart new topic
2 User(s) are reading this topic (2 Guests and 0 Anonymous Users)
0 Members:

 



- Lo-Fi Version Support form
Copyrights and abuse reports form
Time is now: 16th May 2021 - 19:43:54