Welcome Guest ( Log In | Register )

> И неформату есть предел.

Рэп/хип-хоп/шансон/поп удаляются. Для них есть свои порталы.

 
Reply to this topicStart new topic
> Tele.S.Therion - The Chapel (2010), Dark Ambient/Noise/Industrial
post Apr 10 2014, 15:23:02
Post #1

Четыре Литра
****
Group: Металариец
Posts: 358
Releases: 2
From: Екатеринбург
On Forums: 12 years 5 months
Thanks: 556 time(s)
Russian Federation


(IMG:https://metalarea.org/images/audiocovers/2014_Apr/acov_tid221518_thumb.jpg)

*Artist: Tele.S.Therion
*Album: The Chapel
*Year: 2010
*Genre: Dark Ambient/Noise/Industrial
*Country: Italy (IMG:https://metalarea.org/forum/style_images/flags/Italy.png)
*Format: mp3@CBR320kbps
*Size: 140MB

Tracklist:
1.Black Painting I 08:28
2.Black Painting II 10:11
3.Black Painting III 10:20
4.Black Painting IV 12:24
5.Black Painting V 07:05
6.Black Painting VI 07:32
7.Black Painting VII 09:12
******************************
Total playing time: 1:05:12

Extended info
SG: Concept design, PK (psychokinetic) recording sessions based on prepared electric-bass,
amplified within environmental feedback system, during metaphonic field-recording sessions.
K11 : Instrumental transcommunication actions with short-wave radio receivers.Exploration of high-range distortions dimensions. Medianic chants.


Technical info
(IMG:https://metalarea.org/images/spectrogram/2014_Apr/b35bcb51bb80f5b9df6613f15d262260.png)
Input File: 06 - Black Painting VI.mp3
Channels : 2
Sample Rate : 44100
Precision : 16-bit
Duration : 00:07:32.12 = 19938492 samples = 33909 CDDA sectors
File Size : 18.1M
Bit Rate : 320k
Sample Encoding: MPEG audio (layer I, II or III)
Comments :
Title=Black Painting VI
Artist=Tele.s.therion
Album=The Chapel
Tracknumber=06/07
Year=2010



Register


Go to the top of the page
  Insert nick Quick quote
+Quote Post

Reply to this topicStart new topic
1 User(s) are reading this topic (1 Guests and 0 Anonymous Users)
0 Members:

 



- Lo-Fi Version Support form
Copyrights and abuse reports form
Time is now: 6th June 2020 - 06:12:48