Welcome Guest ( Log In | Register )

> Scream Maker - Livin’ In The Past (2014), Heavy Metal
post Apr 11 2014, 12:03:02
Post #1

Serial Uploader
Group Icon
Group: V.I.P
Posts: 39,531
Releases: 37657
From: Lithuania
On Forums: 14 years 7 months
Thanks: 473647 time(s)
Lithuania


(IMG:https://metalarea.org/images/audiocovers/2014_Apr/acov_tid221552_thumb.jpg)

*Artist: Scream Maker
*Album: Livin’ In The Past
*Year: 2014
*Genre: Heavy Metal
*Country: Poland (IMG:https://metalarea.org/forum/style_images/flags/Poland.png)
*Format: mp3@CBR320kbps
*Size: 119MB

Tracklist:
01. Intro 00:36
02. In The Nest Of Serpents 05:08
03. Glory For The Fools 04:20
04. Livin' In The Past 04:26
05. Fever 03:50
06. All My Life 05:02
07. Angel 03:55
08. Spacestome 05:00
09. Stand Together 06:49
10. Confessions 05:36
11. Never Say Never 05:22
12. Metalheads 04:02
******************************
Total playing time: 54:06



Technical info
(IMG:https://metalarea.org/images/spectrogram/2014_Apr/e4ad6ed6e21ed3e012e3731da445e4af.png)
Input File: 02. In The Nest of Serpents.mp3
Channels : 2
Sample Rate : 44100
Precision : 16-bit
Duration : 00:05:08.09 = 13586945 samples = 23107 CDDA sectors
File Size : 12.3M
Bit Rate : 320k
Sample Encoding: MPEG audio (layer I, II or III)
Comments :
Title=In The Nest of Serpents
Artist=Scream Maker
Album=Livin' In The Past
Tracknumber=2
Genre=12



Register


Go to the top of the page
  Insert nick Quick quote
+Quote Post
 
Start new topic
Replies (1 - 2)
post Apr 30 2014, 13:22:24
Post #2

Маньяк
**********
Group: Металариец
Posts: 1,022
Releases: 49
From: Ивантеевка, Московская область
On Forums: 15 years 1 month
Thanks: 1108 time(s)
Russian Federation


На мой взгляд очень качественный хэви, достойный того, чтобы послушать хоть разок. Напомнили Riot.
Go to the top of the page
  Insert nick Quick quote
+Quote Post
post Feb 11 2022, 23:21:46
Post #3

Going home. Flying high.
**************
Group: Металариец
Posts: 13,612
Releases: 0
From: The Land of Shadows
On Forums: 16 years 5 months
Thanks: 30425 time(s)
Russian Federation


from web
Register


Thanks:
(1) Xtohar,
Go to the top of the page
  Insert nick Quick quote
+Quote Post

Reply to this topicStart new topic
2 User(s) are reading this topic (2 Guests and 0 Anonymous Users)
0 Members:

 



- Lo-Fi Version Support form
Copyrights and abuse reports form
Time is now: 28th January 2023 - 13:57:56