Welcome Guest ( Log In | Register )

> Semara - Old Man's Tale [ep] (2014), Post-Metal
post May 2 2014, 09:01:08
Post #1

Правь статус, ####!111
**************
Group: Металариец
Posts: 2,291
Releases: 1011
From: Гиперборе́я
On Forums: 10 years 6 months
Thanks: 21909 time(s)
Russian Federation


(IMG:http://metalarea.org/images/audiocovers/2014_May/acov_tid222785_thumb.jpg)

*Artist: Semara
*Album: Old Man's Tale [ep]
*Year: 2014
*Genre: Post-Metal
*Country: Sweden (IMG:http://metalarea.org/forum/style_images/flags/Sweden.png)
*Format: mp3@CBR320kbps
*Size: 69MB

Tracklist:
01. Dark Times 08:09
02. Boatsman Blues 07:48
03. The Earth Turns 06:37
04. Soothing Landscapes 07:14
******************************
Total playing time: 29:48




Technical info
(IMG:http://metalarea.org/images/spectrogram/2014_May/db1cfa78fedddaa60c4a1616bd64eb1b.png)
Input File: 02 - Boatsman Blues.mp3
Channels : 2
Sample Rate : 44100
Precision : 16-bit
Duration : 00:07:48.11 = 20643607 samples = 35108.2 CDDA sectors
File Size : 18.7M
Bit Rate : 320k
Sample Encoding: MPEG audio (layer I, II or III)
Comments :
Title=Boatsman Blues
Artist=Semara
Album=Old Man's Tale (EP)
Tracknumber=02/04
Year=2014
Genre=Post-Metal



Register


Thanks:
Go to the top of the page
  Insert nick Quick quote
+Quote Post
 
Start new topic
Replies (1 - 1)
post Apr 23 2021, 10:54:38
Post #2

Group Icon
Group: S-moderation team
Posts: 21,086
Releases: 1443
From: Zagreb
On Forums: 10 years 3 months
Thanks: 97120 time(s)
Croatia


Register


Thanks:
Go to the top of the page
  Insert nick Quick quote
+Quote Post

Reply to this topicStart new topic
1 User(s) are reading this topic (1 Guests and 0 Anonymous Users)
0 Members:

 



- Lo-Fi Version Support form
Copyrights and abuse reports form
Time is now: 12th June 2021 - 22:04:41