Welcome Guest ( Log In | Register )

> Ered Wethrin - Tides Of War (2014), Epic/Atmospheric Black Metal
post May 8 2014, 14:54:38
Post #1

Правь статус, ####!111
**************
Group: Металариец
Posts: 4,560
Releases: 1293
From: Brazil
On Forums: 8 years 6 months
Thanks: 48251 time(s)
Brazil


(IMG:http://metalarea.org/images/audiocovers/2014_May/acov_tid223236_thumb.jpg)

*Artist: Ered Wethrin
*Album: Tides Of War
*Year: 2014
*Genre: Epic/Atmospheric Black Metal
*Country: United States (IMG:http://metalarea.org/forum/style_images/flags/United%20States.png)
*Format: mp3@CBR320kbps
*Size: 157MB

Tracklist:
01. Frozen Rivers 09:40
02. Frigid Tides 09:55
03. Bloody Annals And Brooding Skies 10:27
04. Into The Stars 11:39
05. Realm Of The Tyrant 05:06
06. Requiem For The Fallen 14:18
07. Stellar Graveyard 06:34
******************************
Total playing time: 1:07:39



Technical info
(IMG:http://metalarea.org/images/spectrogram/2014_May/2e10d03d49c37d308efe27c39ce00ad6.png)
Input File: Ered Wethrin - Tides of War - 01 Frozen Rivers.mp3
Channels : 2
Sample Rate : 44100
Precision : 16-bit
Duration : 00:09:40.63 = 25605563 samples = 43546.9 CDDA sectors
File Size : 23.5M
Bit Rate : 323k
Sample Encoding: MPEG audio (layer I, II or III)
Comments :
Title=Frozen Rivers
Artist=Ered Wethrin
Album=Tides of War
Tracknumber=1
Year=2014



Register


Go to the top of the page
  Insert nick Quick quote
+Quote Post
 
Start new topic
Replies (1 - 4)
post May 8 2014, 15:59:25
Post #2

.....
**************
Group: Металариец
Posts: 2,791
Releases: 112
On Forums: 11 years 1 week
Thanks: 3997 time(s)
Unknown


Думал шведы одноимённые...


Thanks:
(1) Aresson,
Go to the top of the page
  Insert nick Quick quote
+Quote Post
Jacktheripper666
post May 8 2014, 16:31:39
Post #3

Guests team






Очередной ЮС эпик блек с Nothern Silence. Заценим
Go to the top of the page
  Insert nick Quick quote
+Quote Post
post May 8 2014, 19:48:35
Post #4

Девять Литров
*********
Group: Металариец
Posts: 991
Releases: 91
On Forums: 9 years 3 months
Thanks: 2262 time(s)
Unknown


эх...тоже ожидал шведов. но тут в принципе ниче так
Go to the top of the page
  Insert nick Quick quote
+Quote Post
post Jun 13 2014, 16:16:29
Post #5

Литр
*
Group: Подсевший
Posts: 83
Releases: 0
From: Владимир
On Forums: 11 years 5 months
Thanks: 4 time(s)
Russian Federation


Отличный альбом, очень понравился. (IMG:style_emoticons/default/20.gif)
Go to the top of the page
  Insert nick Quick quote
+Quote Post

Reply to this topicStart new topic
1 User(s) are reading this topic (1 Guests and 0 Anonymous Users)
0 Members:

 



- Lo-Fi Version Support form
Copyrights and abuse reports form
Time is now: 4th August 2020 - 04:24:47