Welcome Guest ( Log In | Register )

> Norrsken - Anfall [demo] (2006), Viking/Black Metal
post May 22 2014, 11:33:32
Post #1

Правь статус, ####!111
**************
Group: Металариец
Posts: 6,577
Releases: 6048
From: Lithuania
On Forums: 16 years 1 month
Thanks: 46680 time(s)
Lithuania


(IMG:http://metalarea.org/images/audiocovers/2014_May/acov_tid224207_thumb.jpg)

*Artist: Norrsken
*Album: Anfall [demo]
*Year: 2006
*Genre: Viking/Black Metal
*Country: Sweden (IMG:http://metalarea.org/forum/style_images/flags/Sweden.png)
*Format: mp3@CBR320kbps
*Size: 35MB

Tracklist:
1. Anfall 04:24
2. Omfamnande Mörker 03:57
3. Vargadom 03:54
4. I Frostdödens Grepp 02:58
******************************
Total playing time: 15:13

(IMG:http://metalarea.org/images/youtube.png)

Technical info
(IMG:http://metalarea.org/images/spectrogram/2014_May/bd2ff59ac5e9e75d6e0ca9ef98c51173.png)
Input File: 01. Anfall.mp3
Channels : 2
Sample Rate : 48000
Precision : 16-bit
Duration : 00:04:24.94 = 12716928 samples ~ 19870.2 CDDA sectors
File Size : 10.6M
Bit Rate : 321k
Sample Encoding: MPEG audio (layer I, II or III)
Comments :
Artist=Norrsken
Album=Anfall
Tracknumber=01
Year=2006
Genre=9



Register


Go to the top of the page
  Insert nick Quick quote
+Quote Post
 
Start new topic
Replies (1 - 2)
post Jun 12 2022, 17:26:30
Post #2

Пять Литров
*****
Group: Металариец
Posts: 413
Releases: 0
On Forums: 4 years 5 months
Thanks: 195 time(s)
Mexico


Re-up please (IMG:style_emoticons/default/pray.gif)

If someone wants it. Järnvidr's only album (the new band created after Norrsken was renamed). Good Swedish pagan/viking/black metal.
Taken from https://rac-forum.org
Register


Thanks:
Go to the top of the page
  Insert nick Quick quote
+Quote Post
post Nov 8 2022, 16:34:49
Post #3

Forever Underground
**************
Group: Металариец
Posts: 10,564
Releases: 0
On Forums: 7 years 7 months
Thanks: 15769 time(s)
Unknown


Still searching..... (IMG:style_emoticons/default/smile2.gif)
Go to the top of the page
  Insert nick Quick quote
+Quote Post

Reply to this topicStart new topic
1 User(s) are reading this topic (1 Guests and 0 Anonymous Users)
0 Members:

 



- Lo-Fi Version Support form
Copyrights and abuse reports form
Time is now: 3rd December 2022 - 17:23:48