Welcome Guest ( Log In | Register )

> Witheria - Devastating Return (2014), Thrash Metal
post May 23 2014, 15:15:54
Post #1

Правь статус, ####!111
**************
Group: Металариец
Posts: 22,292
Releases: 15430
From: Г.Харьков
On Forums: 8 years 1 month
Thanks: 282380 time(s)
Unknown


(IMG:http://metalarea.org/images/audiocovers/2014_May/acov_tid224301_thumb.jpg)

*Artist: Witheria
*Album: Devastating Return
*Year: 2014
*Genre: Thrash Metal
*Country: Finland (IMG:http://metalarea.org/forum/style_images/flags/Finland.png)
*Format: mp3@CBR320kbps
*Size: 90MB

Tracklist:
1. Mind Compressor
2. Passenger Of Thought
3. Burnt To Ashes
4. Raft Of Desolation
5. Some Wounds Will Not Heal
6. Thrown Down The Well
7. Toxic And Aggressive Growth
8. Back On Earth
******************************
Total playing time: 41:51



Extended info


Technical info
(IMG:http://metalarea.org/images/spectrogram/2014_May/bac6b89b9baeddfda3c088f0fb37dd9a.png)
Input File: 02.Passenger Of Thought.MP3
Channels : 2
Sample Rate : 44100
Precision : 16-bit
Duration : 00:06:10.60 = 16343504 samples = 27795.1 CDDA sectors
File Size : 15.1M
Bit Rate : 325k
Sample Encoding: MPEG audio (layer I, II or III)
Comments :
Title=Passenger of Thought
Artist=Witheria
Album=Devastating Return
Tracknumber=2



Register


Go to the top of the page
  Insert nick Quick quote
+Quote Post
 
Start new topic
Replies (1 - 9)
post May 23 2014, 20:40:20
Post #2

И Ван Дамм По Делам Вашим!
**************
Group: Металариец
Posts: 19,243
Releases: 26
On Forums: 12 years 1 week
Thanks: 10732 time(s)
Honduras


Превьюшная тема-просто огонь!Как альбом не знаю,но забрал.Samaritianin спасибо.
Go to the top of the page
  Insert nick Quick quote
+Quote Post
post May 24 2014, 05:53:01
Post #3

И Ван Дамм По Делам Вашим!
**************
Group: Металариец
Posts: 19,243
Releases: 26
On Forums: 12 years 1 week
Thanks: 10732 time(s)
Honduras


Альбом при отличный я Вам доложу.Финны играют Thrash Metal редко,но су.а метко.Порадовала работа соло-гитариста да и в целом альбом будет прослушан мною не один раз. (IMG:style_emoticons/default/metaler.gif) (IMG:style_emoticons/default/metaler.gif)


Go to the top of the page
  Insert nick Quick quote
+Quote Post
post May 24 2014, 12:54:40
Post #4

MDM-Thrash Metal
**************
Group: Металариец
Posts: 9,633
Releases: 914
From: Одесса
On Forums: 12 years 10 months
Thanks: 23635 time(s)
Ukraine


Придерживаюсь к восторженным отзывам! Я бы еще к стилю мелодез добавил.
А альбом действительно аховым вышел на все 100%! (IMG:style_emoticons/default/pray.gif) Все сделано с чувством. с толком и с душою! (IMG:style_emoticons/default/9.gif)
Go to the top of the page
  Insert nick Quick quote
+Quote Post
post May 24 2014, 15:36:47
Post #5

Шесть Литров
******
Group: Металариец
Posts: 697
Releases: 0
From: Одесса-мама
On Forums: 11 years 5 months
Thanks: 234 time(s)
Ukraine


Спасибо!
Согласен с народом. Не ожидал столь приятного на слух релиза от финнов. Приятно удивлён и доволен прослушиванием.
Go to the top of the page
  Insert nick Quick quote
+Quote Post
post Jun 8 2014, 12:02:22
Post #6

South Of Heaven /адепт ВУДУ
**************
Group: Металариец
Posts: 13,960
Releases: 9
On Forums: 10 years 3 months
Thanks: 5479 time(s)
Unknown


Да, хороши чертяки, я бы ещё в стиль добавил дэт.
Go to the top of the page
  Insert nick Quick quote
+Quote Post
post Aug 27 2014, 12:58:18
Post #7

Schuldinerist
**************
Group: Металариец
Posts: 10,751
Releases: 34
From:
On Forums: 13 years 2 months
Thanks: 6924 time(s)
Russian Federation


Офигенный альбом.
Финны играют плотный резкий в меру мелодичный и техничный death/thrash с совершенно шикарным придушенно-защемленным скримом, которому #Шульдинер позавидовал бы#.
Главное, слушается объемно, свежо и интересно.
9/10
Go to the top of the page
  Insert nick Quick quote
+Quote Post
post Mar 7 2016, 15:02:05
Post #8

brutalcesar
**************
Group: Металариец
Posts: 17,951
Releases: 67
From: Рязань
On Forums: 11 years 5 months
Thanks: 9815 time(s)
Russian Federation


Register
Go to the top of the page
  Insert nick Quick quote
+Quote Post
post Nov 8 2017, 19:40:03
Post #9

Семь Литров
*******
Group: Металариец
Posts: 742
Releases: 299
On Forums: 7 years 4 months
Thanks: 1705 time(s)
Sweden


Go to the top of the page
  Insert nick Quick quote
+Quote Post
post Nov 16 2019, 19:16:17
Post #10

ЗмееЛев
********
Group: Металариец
Posts: 817
Releases: 18
On Forums: 9 years 3 months
Thanks: 1868 time(s)
Russian Federation


Классный трэш-метал с мелодичными соляками. Понравилось

Зеркала:
Register
Go to the top of the page
  Insert nick Quick quote
+Quote Post

Reply to this topicStart new topic
1 User(s) are reading this topic (1 Guests and 0 Anonymous Users)
0 Members:

 



- Lo-Fi Version Support form
Copyrights and abuse reports form
Time is now: 9th July 2020 - 02:00:19