Welcome Guest ( Log In | Register )

> Taste Revenge - Drowning Force (2014), Progressive/Thrash Metal
post May 23 2014, 17:59:25
Post #1

Правь статус, ####!111
**************
Group: Металариец
Posts: 35,550
Releases: 26463
From: Г.Харьков
On Forums: 11 years 11 months
Thanks: 572029 time(s)
Ukraine


(IMG:http://metalarea.org/images/audiocovers/2014_May/acov_tid224310_thumb.jpg)

*Artist: Taste Revenge
*Album: Drowning Force
*Year: 2014
*Genre: Progressive/Thrash Metal
*Country: Italy (IMG:http://metalarea.org/forum/style_images/flags/Italy.png)
*Format: mp3@CBR320kbps
*Size: 96MB

Tracklist:
1. God Slayer
2. Try
3. Ask Me To Die
4. Becoming The Legend
5. Scab
6. Down Of Reckoning
7. Nailed To Reality
8. Victims Of Silence
9. Drowning Force
******************************
Total playing time: 42:47

(IMG:http://metalarea.org/images/youtube.png)


Extended info


Technical info
(IMG:http://metalarea.org/images/spectrogram/2014_May/50c380937ba75fb64d5da8ad3091e195.png)
Input File: 01. God Slayer.mp3
Channels : 2
Sample Rate : 44100
Precision : 16-bit
Duration : 00:04:38.77 = 12293889 samples = 20908 CDDA sectors
File Size : 11.2M
Bit Rate : 320k
Sample Encoding: MPEG audio (layer I, II or III)
Comments :
Title=God Slayer
Artist=Taste Revenge
Album=Drowning Force
Tracknumber=1
Year=2014
Genre=Progressive/Thrash Metal



Register


Go to the top of the page
  Insert nick Quick quote
+Quote Post
 
Start new topic
Replies (1 - 4)
post May 24 2014, 07:34:34
Post #2

Аннигилятор пивА
Group Icon
Group: V.I.P
Posts: 52,552
Releases: 16538
From: Koenigsberg - TILZIT
On Forums: 17 years 10 months
Thanks: 371796 time(s)
Russian Federation


В основе харднхэви, местами сильно модерновый (периодически альтернативка мелькает), вокал хэви-пауэрный сильно на любителя, есть элементы трэша и прог присутствует но так сказать в основном он заключается в смешивании этих жанров, в общем не то что хотелось бы, любителям хэви с разнообразинкой может и прокатить, мне не понравилось, думаю дело в специфическом вокале и дурацких хард-модерновых проходах не к месту, в стиле думаю достаточно указать хэви/трэш(ну а модерн хард рок если угодно можно и в прогрессив употребить)


Go to the top of the page
  Insert nick Quick quote
+Quote Post
post Mar 12 2023, 11:27:08    Сейчас играет: Re-up please ;-)
Post #3

Правь статус, ####!111
**************
Group: Металариец
Posts: 3,704
Releases: 0
From: Sofia
On Forums: 16 years 6 months
Thanks: 131 time(s)
Bulgaria


Re-up please (IMG:style_emoticons/default/pray.gif) (IMG:style_emoticons/default/pray.gif) (IMG:style_emoticons/default/pray.gif) (IMG:style_emoticons/default/pray.gif)
Go to the top of the page
  Insert nick Quick quote
+Quote Post
post Mar 18 2023, 15:10:47
Post #4

Литр
*
Group: Подсевший
Posts: 90
Releases: 0
On Forums: 7 years 7 months
Thanks: 112 time(s)
Russian Federation


320 из сети
Register


Thanks:
(1) Ingvar,
Go to the top of the page
  Insert nick Quick quote
+Quote Post
post Mar 18 2023, 18:03:50
Post #5

Правь статус, ####!111
**************
Group: Металариец
Posts: 3,704
Releases: 0
From: Sofia
On Forums: 16 years 6 months
Thanks: 131 time(s)
Bulgaria




(IMG:style_emoticons/default/9.gif) (IMG:style_emoticons/default/9.gif) (IMG:style_emoticons/default/9.gif)
QUOTE(emutk @ Mar 18 2023, 14:10:47) *
320 из сети

Go to the top of the page
  Insert nick Quick quote
+Quote Post

Reply to this topicStart new topic
1 User(s) are reading this topic (1 Guests and 0 Anonymous Users)
0 Members:

 



- Lo-Fi Version Support form
Copyrights and abuse reports form
Time is now: 15th April 2024 - 16:15:41