Welcome Guest ( Log In | Register )

> Intumescence - Genital Putrefaction [demo] (1989), Death Metal (D8)
post May 29 2014, 00:41:35
Post #1

Подвал
**************
Group: Металариец
Posts: 16,000
Releases: 9158
From: Far East (Khabarovsk)
On Forums: 12 years 3 months
Thanks: 103010 time(s)
Russian Federation


(IMG:http://metalarea.org/images/audiocovers/2014_May/acov_tid224600_thumb.jpg)

*Artist: Intumescence
*Album: Genital Putrefaction [demo]
*Year: 1989
*Genre: Death Metal
*Country: Switzerland (IMG:http://metalarea.org/forum/style_images/flags/Switzerland.png)
*Format: mp3@CBR320kbps
*Size: 52MB

Tracklist:
1. Intro 00:24
2. Genital Putrefaction 04:49
3. Horrificator 04:10
4. Eternal Suffocation 03:17
5. An Horrible Night 04:27
6. Women 04:59
7. Medical War 03:22
8. Sex? I Love You! 00:36
******************************
Total playing time: 26:04

Extended info
Rehearsal recording.


Technical info
(IMG:http://metalarea.org/images/spectrogram/2014_May/4cdc7624d02f4ad038a37997dceee31a.png)
Input File: 02-Genital Putrefaction.mp3
Channels : 2
Sample Rate : 44100
Precision : 16-bit
Duration : 00:04:49.20 = 12753896 samples = 21690.3 CDDA sectors
File Size : 11.6M
Bit Rate : 320k
Sample Encoding: MPEG audio (layer I, II or III)
Comments :
Title=Genital Putrefaction
Artist=Intumescence
Album=Genital Putrefaction (Reh.Demo)
Tracknumber=02
Year=1989
Genre=Death Metal



Register


Go to the top of the page
  Insert nick Quick quote
+Quote Post
 
Start new topic
Replies (1 - 1)
post May 4 2021, 16:20:25
Post #2

Group Icon
Group: S-moderation team
Posts: 20,843
Releases: 1443
From: Zagreb
On Forums: 10 years 2 months
Thanks: 95636 time(s)
Croatia


Register


Thanks:
Go to the top of the page
  Insert nick Quick quote
+Quote Post

Reply to this topicStart new topic
1 User(s) are reading this topic (1 Guests and 0 Anonymous Users)
0 Members:

 



- Lo-Fi Version Support form
Copyrights and abuse reports form
Time is now: 18th May 2021 - 02:15:53