Welcome Guest ( Log In | Register )

> Dragon's Kiss - Barbarians Of The Wasteland (2014), Heavy Metal
post May 30 2014, 01:56:20
Post #1

Правь статус, ####!111
**************
Group: Металариец
Posts: 26,045
Releases: 18690
From: Г.Харьков
On Forums: 9 years 4 days
Thanks: 370451 time(s)
Unknown


(IMG:http://metalarea.org/images/audiocovers/2014_May/acov_tid224668_thumb.jpg)

*Artist: Dragon's Kiss
*Album: Barbarians Of The Wasteland
*Year: 2014
*Genre: Heavy Metal
*Country: Portugal (IMG:http://metalarea.org/forum/style_images/flags/Portugal.png)
*Format: mp3@CBR320kbps
*Size: 92MB

Tracklist:
1. Barbarians Of The Wasteland
2. Ride For Revenge
3. Ride Till We Die
4. Wild Pack Of Dogs
5. Somewhere Up In The Mountains (Marquis De Sade Cover)
6. Castle Of The Witch
7. Rock 'n 'Roll Soldiers (The New Order Cover)
8. I Embraced The Serpent And The Devil In The Dark
******************************
Total playing time: 40:03


(IMG:http://metalarea.org/images/youtube.png)

Technical info
(IMG:http://metalarea.org/images/spectrogram/2014_May/fd5d76005b52717cae13007ec3077ae3.png)
Input File: 02 - Ride for Revenge.mp3
Channels : 2
Sample Rate : 44100
Precision : 16-bit
Duration : 00:04:16.18 = 11297670 samples = 19213.7 CDDA sectors
File Size : 10.5M
Bit Rate : 327k
Sample Encoding: MPEG audio (layer I, II or III)
Comments :
Title=Ride for Revenge
Artist=Dragon'S Kiss
Album=Barbarians of the Wasteland
Tracknumber=2/8
Year=2014



Register


Go to the top of the page
  Insert nick Quick quote
+Quote Post
 
Start new topic
Replies (1 - 5)
post Feb 19 2015, 22:30:45
Post #2

Правь статус, ####!111
**************
Group: Металариец
Posts: 48,732
Releases: 822
On Forums: 11 years 11 months
Thanks: 43183 time(s)
Russian Federation


Отличнейшая раздолбайская, адреналинно-наполненная зверскость. Больше всего напомнило Venom и вообще то время. Это отлично, что португальцы смогли нарулить такой релиз. Именно подобная инкарнация стиля нам всем, угорающим по золотым 80-м и нужна. Дьявол трясёт башкой на байке по пути пивас хлеща и содомируя тёток.
Go to the top of the page
  Insert nick Quick quote
+Quote Post
post Jan 20 2017, 18:32:10
Post #3

Мегаманьяк
***********
Group: Металариец
Posts: 1,780
Releases: 0
On Forums: 8 years 6 months
Thanks: 2655 time(s)
Russian Federation


Альтернативная ссылка
Register
Go to the top of the page
  Insert nick Quick quote
+Quote Post
post Apr 8 2021, 05:52:02
Post #4

Два Литра
**
Group: Завсегдатай
Posts: 167
Releases: 0
From: Russian Federation
On Forums: 14 years 8 months
Thanks: 3 time(s)
Russian Federation


Thank you very much, but unfortunately the link is no longer available (IMG:style_emoticons/default/6.gif)
Can anyone help?
Go to the top of the page
  Insert nick Quick quote
+Quote Post
post Apr 13 2021, 17:28:33
Post #5

Group Icon
Group: S-moderation team
Posts: 20,772
Releases: 1443
From: Zagreb
On Forums: 10 years 2 months
Thanks: 95185 time(s)
Croatia


Register


Thanks:
Go to the top of the page
  Insert nick Quick quote
+Quote Post
post Apr 13 2021, 17:33:20
Post #6

Прог-козёл (с)
**************
Group: Металариец
Posts: 15,555
Releases: 0
From: Киев
On Forums: 13 years 3 months
Thanks: 9812 time(s)
Unknown


ЦИТАТА(vosmidesijatye @ Feb 20 2015, 02:30:45) *
Дьявол трясёт башкой на байке по пути пивас хлеща и содомируя тёток.

Маэстро в очередной раз использует слово, значения которого не знает (IMG:style_emoticons/default/1488.gif)
Go to the top of the page
  Insert nick Quick quote
+Quote Post

Reply to this topicStart new topic
1 User(s) are reading this topic (1 Guests and 0 Anonymous Users)
0 Members:

 



- Lo-Fi Version Support form
Copyrights and abuse reports form
Time is now: 14th May 2021 - 17:36:39