Welcome Guest ( Log In | Register )

Объявления

* gmail.com упорно продолжает считать почту с нас "unsolicited" и отбивает в том числе и письма активации, поэтому просьба использовать альтернативные почтовые ящики.
------------
* gmail.com continues reject all mail from us as "unsolicited" (activation mails too) therefore please use alternate mail servers.
> Eleine - Gathering Storm [single] (2014), Symphonic/Gothic Metal
post Jun 2 2014, 16:37:49
Post #1

Serial Uploader
Group Icon
Group: V.I.P
Posts: 42,638
Releases: 40702
From: Lithuania
On Forums: 15 years 11 months
Thanks: 521657 time(s)
Lithuania


(IMG:https://metalarea.org/images/audiocovers/2014_Jun/acov_tid224905_thumb.jpg)

*Artist: Eleine
*Album: Gathering Storm [single]
*Year: 2014
*Genre: Symphonic/Gothic Metal
*Country: Sweden (IMG:https://metalarea.org/forum/style_images/flags/Sweden.png)
*Format: mp3@CBR320kbps
*Size: 7MB

Tracklist:
01. Gathering Storm 03:24
******************************
Total playing time: 3:24


(IMG:https://metalarea.org/images/youtube.png)

Extended info
B низкобитрейтный раздел


Technical info
(IMG:https://metalarea.org/images/spectrogram/2014_Jun/bd1e675cd64f69d3bbc32af7c51ccae0.png)
Input File: 01. Gathering Storm.mp3
Channels : 2
Sample Rate : 44100
Precision : 16-bit
Duration : 00:03:24.38 = 9013246 samples = 15328.6 CDDA sectors
File Size : 8.23M
Bit Rate : 322k
Sample Encoding: MPEG audio (layer I, II or III)
Comments :
Title=Gathering Storm
Artist=Elein
Album=Gathering Storm
Tracknumber=01
Year=2014
Genre=Gothic Metal



Register


Go to the top of the page
  Insert nick Quick quote
+Quote Post
 
Start new topic
Replies (1 - 2)
post Jun 2 2014, 17:17:30
Post #2

Шесть Литров
******
Group: Металариец
Posts: 517
Releases: 12
On Forums: 12 years 1 week
Thanks: 464 time(s)
Russian Federation


Голос приятный, но сама "подруга" страшнее "американской демократии". Спасибо.
Go to the top of the page
  Insert nick Quick quote
+Quote Post
post Jun 2 2014, 19:17:54
Post #3

Шесть Литров
******
Group: Металариец
Posts: 673
Releases: 4
From: Ukraine
On Forums: 15 years 4 months
Thanks: 400 time(s)
Ukraine


Ух ТЫ! "Женский Мэнсон"!! вот он американский идол новой эры, страшный бабо-мужик с носом бульки!


Thanks:
(1) KKK1488,
Go to the top of the page
  Insert nick Quick quote
+Quote Post

Reply to this topicStart new topic
2 User(s) are reading this topic (2 Guests and 0 Anonymous Users)
0 Members:

 



- Lo-Fi Version Support form
Copyrights and abuse reports form
Time is now: 30th May 2024 - 23:44:57