Welcome Guest ( Log In | Register )

> Aphorism - I [ep] (2014), Black/Death Metal/Crust
post Jun 3 2014, 10:38:31
Post #1

Serial Uploader
Group Icon
Group: V.I.P
Posts: 37,601
Releases: 35773
From: Lithuania
On Forums: 13 years 1 week
Thanks: 432810 time(s)
Lithuania


(IMG:https://metalarea.org/images/audiocovers/2014_Jun/acov_tid224934_thumb.jpg)

*Artist: Aphorism
*Album: I [ep]
*Year: 2014
*Genre: Black/Death Metal/Crust
*Country: Brazil (IMG:https://metalarea.org/forum/style_images/flags/Brazil.png)
*Format: mp3@CBR320kbps
*Size: 33MB

Tracklist:
01. Intro 00:36
02. O Ímpeto Da Perversidade 01:43
03. Desculpe-Me, Mas Eu Cansei De Existir 02:11
04. Ódio à Primeira Vista 01:56
05. Homem Comum 02:54
06. Retorno Ao Caos 01:59
07. Animal Terroir 01:26
******************************
Total playing time: 12:45



Technical info
(IMG:https://metalarea.org/images/spectrogram/2014_Jun/df4dee71f893c296d564e2ea0a5a8e96.png)
Input File: 02. O ?mpeto da Perversidade.mp3
Channels : 2
Sample Rate : 44100
Precision : 16-bit
Duration : 00:01:43.74 = 4574978 samples = 7780.57 CDDA sectors
File Size : 4.53M
Bit Rate : 350k
Sample Encoding: MPEG audio (layer I, II or III)
Comments :
Title=O ГЌmpeto da Perversidade
Artist=Aphorism
Album=I
Tracknumber=2
Year=2014



Register


Go to the top of the page
  Insert nick Quick quote
+Quote Post
 
Start new topic
Replies (1 - 2)
post Jun 10 2021, 15:20:56
Post #2

Литр
*
Group: Подсевший
Posts: 59
Releases: 0
On Forums: 3 years 6 months
Thanks: 19 time(s)
Ukraine


перезалейте
Go to the top of the page
  Insert nick Quick quote
+Quote Post
post Jun 12 2021, 04:39:50
Post #3

Group Icon
Group: S-moderation team
Posts: 21,100
Releases: 1443
From: Zagreb
On Forums: 10 years 3 months
Thanks: 97331 time(s)
Croatia


Register


Thanks:
Go to the top of the page
  Insert nick Quick quote
+Quote Post

Reply to this topicStart new topic
2 User(s) are reading this topic (2 Guests and 0 Anonymous Users)
0 Members:

 



- Lo-Fi Version Support form
Copyrights and abuse reports form
Time is now: 18th June 2021 - 06:57:55