Welcome Guest ( Log In | Register )

> Drescher - Erntezeit (2014), Melodic Death/Thrash/Folk Metal
post Jul 5 2014, 13:45:59
Post #1

Правь статус, ####!111
**************
Group: Металариец
Posts: 26,015
Releases: 18672
From: Г.Харьков
On Forums: 9 years 21 hours
Thanks: 369805 time(s)
Unknown


(IMG:http://metalarea.org/images/audiocovers/2014_Jul/acov_tid226890_thumb.jpg)

*Artist: Drescher
*Album: Erntezeit
*Year: 2014
*Genre: Melodic Death/Thrash/Folk Metal
*Country: Austria (IMG:http://metalarea.org/forum/style_images/flags/Austria.png)
*Format: mp3@CBR320kbps
*Size: 109MB

Tracklist:
1. First Blood 03:45
2. Der Gscheitling 03:46
3. Olles Wos mir Fehlt 04:58
4. Zeit Zum Gehen 04:33
5. 5 Minuten Ruhm 04:30
6. Bled Grennt 04:39
7. Zeitung Von Morgen 04:22
8. Danke Fia Nix 04:48
9. Dresch Quetschn 05:25
10. Geheiligt Werde Dein Name 07:14
******************************
Total playing time: 48:00


(IMG:http://metalarea.org/images/youtube.png)

Technical info
(IMG:http://metalarea.org/images/spectrogram/2014_Jul/710d3d8e521604d41023573379470f19.png)
Input File: 03. Olles Wos Mir Fehit.mp3
Channels : 2
Sample Rate : 44100
Precision : 16-bit
Duration : 00:04:57.36 = 13113400 samples = 22301.7 CDDA sectors
File Size : 11.9M
Bit Rate : 320k
Sample Encoding: MPEG audio (layer I, II or III)
Comments :
Title=Olles Wos Mir Fehit
Artist=Drescher
Album=Erntezeit
Tracknumber=3
Year=2014
Genre=Death Metal



Register


Go to the top of the page
  Insert nick Quick quote
+Quote Post
 
Start new topic
Replies (1 - 9)
post Jul 6 2014, 10:59:57
Post #2

Сектант технодро4чер
**************
Group: Металариец
Posts: 5,578
Releases: 143
From: Тимчасово окупована територія
On Forums: 12 years 8 months
Thanks: 5945 time(s)
Ukraine


(IMG:style_emoticons/default/banana.gif) Приятная музыка! (IMG:style_emoticons/default/20.gif)
Go to the top of the page
  Insert nick Quick quote
+Quote Post
post Jul 8 2014, 08:37:34
Post #3

Ёлд ХеллоВяйне
Group Icon
Group: V.I.P
Posts: 31,516
Releases: 144
From: Питер
On Forums: 14 years 6 months
Thanks: 19612 time(s)
Russian Federation


QUOTE(neoatheist @ 6th July 2014 - 13:59:57) *
Приятная музыка!


Но в очень уж надоевшем ключе.
Go to the top of the page
  Insert nick Quick quote
+Quote Post
post Jul 8 2014, 16:15:09
Post #4

::
**************
Group: Металариец
Posts: 2,295
Releases: 3
From: Воронеж
On Forums: 11 years 1 week
Thanks: 1055 time(s)
Russian Federation


ЦИТАТА(neoatheist @ Jul 6 2014, 13:59:57) *
(IMG:style_emoticons/default/banana.gif) Приятная музыка! (IMG:style_emoticons/default/20.gif)

Музыка то да, а вот вокал такой я чет слушать не могу (IMG:style_emoticons/default/smile2.gif)
Go to the top of the page
  Insert nick Quick quote
+Quote Post
post Aug 7 2014, 09:47:50
Post #5

Ъ
**************
Group: Металариец
Posts: 10,574
Releases: 9
On Forums: 12 years 4 months
Thanks: 2168 time(s)
Sweden


Не люблю фолк - разгельдяй стайл. шифт+дел
Go to the top of the page
  Insert nick Quick quote
+Quote Post
post Aug 13 2014, 08:59:20
Post #6

FOLK METAL FEVER
**************
Group: Металариец
Posts: 2,217
Releases: 6
From: Kyiv
On Forums: 13 years 6 months
Thanks: 290 time(s)
Ukraine


Очень приятная музыка, особенно порадовали гармоничные небанальные партии аккордеона. Молоцы австрияки! Так держать!
Go to the top of the page
  Insert nick Quick quote
+Quote Post
post Aug 13 2014, 09:29:29
Post #7

FOLK METAL FEVER
**************
Group: Металариец
Posts: 2,217
Releases: 6
From: Kyiv
On Forums: 13 years 6 months
Thanks: 290 time(s)
Ukraine


Кстати, и кавер на Iron Maiden хороший получился!


Thanks:
Go to the top of the page
  Insert nick Quick quote
+Quote Post
post Aug 13 2014, 10:14:30
Post #8

Ёлд ХеллоВяйне
Group Icon
Group: V.I.P
Posts: 31,516
Releases: 144
From: Питер
On Forums: 14 years 6 months
Thanks: 19612 time(s)
Russian Federation


Кавер скорее забавный, этакие немецкие частушки, и вообще Elakelaiset напомнило внезапно (IMG:style_emoticons/default/1488.gif) но я об этой перепевке вообще не подозревал.
Go to the top of the page
  Insert nick Quick quote
+Quote Post
post Dec 28 2014, 18:17:09
Post #9

***********
Group: Металариец
Posts: 1,557
Releases: 16
From: Москва
On Forums: 14 years 5 months
Thanks: 2207 time(s)
Russian Federation


Банальщина с противным вокалом...
Go to the top of the page
  Insert nick Quick quote
+Quote Post
post Apr 8 2021, 17:57:12
Post #10

Правь статус, ####!111
**************
Group: Металариец
Posts: 4,490
Releases: 258
From: MoscoW
On Forums: 14 years 5 months
Thanks: 4935 time(s)
Russian Federation


Go to the top of the page
  Insert nick Quick quote
+Quote Post

Reply to this topicStart new topic
1 User(s) are reading this topic (1 Guests and 0 Anonymous Users)
0 Members:

 



- Lo-Fi Version Support form
Copyrights and abuse reports form
Time is now: 11th May 2021 - 07:18:05