Welcome Guest ( Log In | Register )

> Perennial Isolation - Conviction Of Voidness (2014), Atmospheric Black Metal
post Jul 7 2014, 21:17:15
Post #1

Правь статус, ####!111
**************
Group: Металариец
Posts: 26,313
Releases: 18927
From: Г.Харьков
On Forums: 9 years 1 month
Thanks: 377423 time(s)
Unknown


(IMG:http://metalarea.org/images/audiocovers/2014_Jul/acov_tid227031_thumb.JPG)

*Artist: Perennial Isolation
*Album: Conviction Of Voidness
*Year: 2014
*Genre: Atmospheric Black Metal
*Country: Spain (IMG:http://metalarea.org/forum/style_images/flags/Spain.png)
*Format: mp3@CBR320kbps
*Size: 73MB

Tracklist:
1. Waterfalls From Nothing
2. Majestic Void
3. My Last Journey To Nowhere
4. The Wheel Of Desolated Madness
5. Lost In The Mist
6. Narayama
7. The Wind Comes From Aokigahara
8. Prelude To Voidness
******************************
Total playing time: 32:41



Technical info
(IMG:http://metalarea.org/images/spectrogram/2014_Jul/74dc85eb76a08d693d8bcf7ec011bee5.png)
Input File: 03. My Last Journey To Nowhere.mp3
Channels : 2
Sample Rate : 44100
Precision : 16-bit
Duration : 00:04:27.55 = 11798867 samples = 20066.1 CDDA sectors
File Size : 10.7M
Bit Rate : 320k
Sample Encoding: MPEG audio (layer I, II or III)
Comments :
Title=My Last Journey To Nowhere
Artist=Perennial Isolation
Album=Conviction Of Voidness
Tracknumber=03/08
Year=2014
Genre=Black Metal



Register


Go to the top of the page
  Insert nick Quick quote
+Quote Post
 
Start new topic
Replies (1 - 4)
post Jul 11 2014, 12:58:51
Post #2

I hate you all
**************
Group: Металариец
Posts: 2,595
Releases: 82
From: Ukraine
On Forums: 14 years 1 month
Thanks: 6612 time(s)
Ukraine




Thanks:
Go to the top of the page
  Insert nick Quick quote
+Quote Post
post Nov 6 2017, 00:02:46
Post #3

Литр
*
Group: Подсевший
Posts: 60
Releases: 0
On Forums: 5 years 3 months
Thanks: 14 time(s)
Paraguay


Re-up please!!! (IMG:style_emoticons/default/6.gif) (IMG:style_emoticons/default/6.gif) (IMG:style_emoticons/default/6.gif)
Go to the top of the page
  Insert nick Quick quote
+Quote Post
post Nov 6 2017, 21:13:03
Post #4

Going home. Flying high.
**************
Group: Металариец
Posts: 13,340
Releases: 0
From: The Land of Shadows
On Forums: 14 years 10 months
Thanks: 27000 time(s)
Russian Federation


from the web
Register


Thanks:
Go to the top of the page
  Insert nick Quick quote
+Quote Post
post Apr 7 2021, 15:45:29
Post #5

Правь статус, ####!111
**************
Group: Металариец
Posts: 4,856
Releases: 373
From: MoscoW
On Forums: 14 years 6 months
Thanks: 6322 time(s)
Russian Federation


PERENNIAL ISOLATION:
Go to the top of the page
  Insert nick Quick quote
+Quote Post

Reply to this topicStart new topic
1 User(s) are reading this topic (1 Guests and 0 Anonymous Users)
0 Members:

 



- Lo-Fi Version Support form
Copyrights and abuse reports form
Time is now: 18th June 2021 - 03:05:18