Welcome Guest ( Log In | Register )

> Gonguri - 2014 EP [ep] (2014), Sludge/Death Metal
post Jul 13 2014, 13:16:37
Post #1

Литр
*
Group: Подсевший
Posts: 50
Releases: 5
From: nowhere
On Forums: 12 years 4 months
Thanks: 57 time(s)
Unknown


(IMG:https://metalarea.org/images/audiocovers/2014_Jul/acov_tid227266_thumb.jpg)

*Artist: Gonguri
*Album: 2014 EP [ep]
*Year: 2014
*Genre: Sludge/Death Metal
*Country: South Korea (IMG:https://metalarea.org/forum/style_images/flags/South%20Korea.png)
*Format: mp3@CBR320kbps
*Size: 53MB

Tracklist:
1. Dead Gook Storage 03:53
2. Yeonbyeon Kangpae 03:48
3. Unwanted Man 05:41
4. World of Shit 09:22
******************************
Total playing time: 22:44




Technical info
(IMG:https://metalarea.org/images/spectrogram/2014_Jul/09ec07be92cbf3615388bac88749162a.png)
Input File: spectrum.png
Channels : 2
Sample Rate : 8000
Precision : 16-bit
Duration : 00:00:01.23 = 9848 samples ~ 92.325 CDDA sectors
File Size : 720k
Bit Rate : 4.68M
Sample Encoding: MPEG audio (layer I, II or III)



Register


Go to the top of the page
  Insert nick Quick quote
+Quote Post
 
Start new topic
Replies (1 - 3)
post Jul 13 2014, 16:36:40
Post #2
BAN
Banned till
Apr 1 4760, 02:32:02



узкоглазые ублюдки в своем репертуаре.


Thanks:
Go to the top of the page
  Insert nick Quick quote
+Quote Post
post Jul 13 2014, 17:28:52
Post #3

ухо-горло-нос
********
Group: Металариец
Posts: 853
Releases: 0
From: Севастополь
On Forums: 11 years 10 months
Thanks: 384 time(s)
Russian Federation


ЦИТАТА(KKK1488 @ Jul 13 2014, 17:36:40) *
узкоглазые ублюдки в своем репертуаре.

Они в традициях. У них принято кушать собак. Но прежде они собаку привязывают к столбу и каждый проходящий должен ударить собаку ногой и чем сильнее тем считается лучше, мол мясо с гемотомами явно вкуснее простой неотбивной собачатины. Так что они в самом крутом национальном свете на обложке испражнились.
А во Вьетнаме и Лаосе также едят кошек.
Go to the top of the page
  Insert nick Quick quote
+Quote Post
post Jul 13 2014, 20:09:52
Post #4

Шесть Литров
******
Group: Металариец
Posts: 673
Releases: 4
From: Ukraine
On Forums: 13 years 5 months
Thanks: 393 time(s)
Ukraine


да мир всегда удивляет, скорее бы перезагрузка Земли произошла
Go to the top of the page
  Insert nick Quick quote
+Quote Post

Reply to this topicStart new topic
2 User(s) are reading this topic (2 Guests and 0 Anonymous Users)
0 Members:

 



- Lo-Fi Version Support form
Copyrights and abuse reports form
Time is now: 5th July 2022 - 07:39:45