Welcome Guest ( Log In | Register )

Объявления

* gmail.com упорно продолжает считать почту с нас "unsolicited" и отбивает в том числе и письма активации, поэтому просьба использовать альтернативные почтовые ящики.
------------
* gmail.com continues reject all mail from us as "unsolicited" (activation mails too) therefore please use alternate mail servers.
> Sadness - Close (2014), Depressive Black Metal (D)
post Jul 16 2014, 18:04:30
Post #1

Правь статус, ####!111
**************
Group: Металариец
Posts: 2,299
Releases: 1011
From: Гиперборе́я
On Forums: 13 years 6 months
Thanks: 22155 time(s)
Russian Federation


(IMG:http://metalarea.org/images/audiocovers/2014_Jul/acov_tid227426_thumb.jpg)

*Artist: Sadness
*Album: Close
*Year: 2014
*Genre: Depressive Black Metal
*Country: United States (IMG:http://metalarea.org/forum/style_images/flags/United%20States.png)
*Format: mp3@CBR320kbps
*Size: 102MB

Tracklist:
01. Lonely 10:15
02. Useless 12:14
03. Sad 09:04
04. Life Would Be So Beautiful... 05:16
05. Suicide 08:51
******************************
Total playing time: 45:40



Extended info
Low Bitrate


Technical info
(IMG:http://metalarea.org/images/spectrogram/2014_Jul/b175f0801c9720bc9515909a3405d639.png)
Input File: 05 - Suicide.mp3
Channels : 2
Sample Rate : 44100
Precision : 16-bit
Duration : 00:08:52.12 = 23466272 samples = 39908.6 CDDA sectors
File Size : 21.3M
Bit Rate : 320k
Sample Encoding: MPEG audio (layer I, II or III)
Comments :
Title=Suicide
Artist=Sadness
Album=Close
Tracknumber=05/05
Year=2014
Genre=Depressive Black Metal



Register


Go to the top of the page
  Insert nick Quick quote
+Quote Post
 
Start new topic
Replies (1 - 8)
post Jul 17 2014, 09:50:41
Post #2

Шесть Литров
******
Group: Металариец
Posts: 673
Releases: 4
From: Ukraine
On Forums: 15 years 4 months
Thanks: 400 time(s)
Ukraine


ну и нафиг??? есть же Саднесс и покруче.


Thanks:
(1) Shadowman,
Go to the top of the page
  Insert nick Quick quote
+Quote Post
post Jul 19 2014, 14:23:41
Post #3

Девять Литров
*********
Group: Металариец
Posts: 994
Releases: 91
On Forums: 13 years 1 month
Thanks: 2313 time(s)
Unknown


это не лоу битрейт,а оригинальный релиз с бандкампа. такое качество-особенность записи. очень крутой релиз кстати!


Thanks:
Go to the top of the page
  Insert nick Quick quote
+Quote Post
post Jul 19 2014, 16:12:42
Post #4

Герберт Уэст
**************
Group: Металариец
Posts: 2,518
Releases: 81
From: Болота мокшанские/Донбасс
On Forums: 14 years 11 months
Thanks: 5708 time(s)
Russian Federation


ЦИТАТА(GoatFucker @ Jul 17 2014, 11:50:41) *
ну и нафиг??? есть же Саднесс и покруче.
Тот Сэднесс уже история, к сожалению. (IMG:style_emoticons/default/smile2.gif)
Go to the top of the page
  Insert nick Quick quote
+Quote Post
post Jul 21 2014, 16:44:33
Post #5

Only Black Metal
**************
Group: Металариец
Posts: 3,177
Releases: 686
From: Львів
On Forums: 15 years 11 months
Thanks: 15188 time(s)
Ukraine


ЦИТАТА(shadow666 @ 19th July 2014 - 16:23:41) *
очень крутой релиз кстати!


Блеа, не наепи только, так давно депреса толкового не было, последнее что было более-менее норм эт лузер последний.
Go to the top of the page
  Insert nick Quick quote
+Quote Post
post Aug 13 2014, 18:12:01
Post #6

i listen to black metal
**************
Group: Металариец
Posts: 4,090
Releases: 150
From: Москва
On Forums: 17 years 5 months
Thanks: 2629 time(s)
Russian Federation


круче этого Саднесса ..тот в отстое срёт булками,этот великолепен
Go to the top of the page
  Insert nick Quick quote
+Quote Post
post Aug 13 2014, 20:26:54
Post #7

Восемь Литров
********
Group: Металариец
Posts: 883
Releases: 8
On Forums: 12 years 10 months
Thanks: 670 time(s)
Russian Federation


ЦИТАТА(GoatFucker @ Jul 17 2014, 09:50:41) *
ну и нафиг??? есть же Саднесс и покруче.

Значит, открепить бы не худо от дискографии швейцарцев.
Go to the top of the page
  Insert nick Quick quote
+Quote Post
post Dec 14 2014, 21:26:31
Post #8

Правь статус, ####!111
**************
Group: Металариец
Posts: 56,003
Releases: 1201
On Forums: 14 years 11 months
Thanks: 54872 time(s)
Russian Federation


ЗАМЕЧАТЕЛЬНЫЙ АЛЬБОМ (для любителей суицидайла строго, разумеется). Безостановочная и безудержная монотонно-вялотекущая сырая венорезка...Ничего нового, но с душой.
Go to the top of the page
  Insert nick Quick quote
+Quote Post
post Mar 15 2022, 15:24:24
Post #9

Шесть Литров
******
Group: Металариец
Posts: 567
Releases: 23
From: Planet Earth
On Forums: 8 years 8 months
Thanks: 1411 time(s)
Palau


re
Register


Thanks:
Go to the top of the page
  Insert nick Quick quote
+Quote Post

Reply to this topicStart new topic
2 User(s) are reading this topic (2 Guests and 0 Anonymous Users)
0 Members:

 



- Lo-Fi Version Support form
Copyrights and abuse reports form
Time is now: 31st May 2024 - 00:15:14