Welcome Guest ( Log In | Register )

> Korium - Súmračné Prebúdzanie Drevhov [ep] (2014), Black Metal
post Aug 27 2014, 11:52:47
Post #1

Правь статус, ####!111
**************
Group: Металариец
Posts: 6,550
Releases: 6029
From: Lithuania
On Forums: 14 years 8 months
Thanks: 46085 time(s)
Lithuania


(IMG:http://metalarea.org/images/audiocovers/2014_Aug/acov_tid229264_thumb.jpg)

*Artist: Korium
*Album: Súmračné Prebúdzanie Drevhov [ep]
*Year: 2014
*Genre: Black Metal
*Country: Slovakia (IMG:http://metalarea.org/forum/style_images/flags/Slovakia.png)
*Format: mp3@CBR320kbps
*Size: 51MB

Tracklist:
1. Súmračné Prebúdzanie Drevhov 22:20
******************************
Total playing time: 22:20

(IMG:http://metalarea.org/images/youtube.png)

Technical info
(IMG:http://metalarea.org/images/spectrogram/2014_Aug/6a0a708435844457dd4dbcb4764e98f6.png)
Input File: 01 Súmračné Prebúdzanie Drevhov.mp3
Channels : 2
Sample Rate : 44100
Precision : 16-bit
Duration : 00:22:20.03 = 59095279 samples = 100502 CDDA sectors
File Size : 53.6M
Bit Rate : 320k
Sample Encoding: MPEG audio (layer I, II or III)
Comments :
Artist=Korium
Album=SГєmraДЌnГ© PrebГєdzanie Drevhov
Year=2014
Genre=9



Register


Go to the top of the page
  Insert nick Quick quote
+Quote Post
 
Start new topic
Replies (1 - 3)
post Aug 27 2014, 13:05:27
Post #2

Девять Литров
*********
Group: Металариец
Posts: 991
Releases: 91
On Forums: 10 years 2 months
Thanks: 2271 time(s)
Unknown


очень сыро,слушать к сожалению невозможно((
Go to the top of the page
  Insert nick Quick quote
+Quote Post
post Aug 27 2014, 13:29:59
Post #3

Group: Подсевший
Posts: 10
Releases: 0
On Forums: 12 years 10 months
Thanks: 6 time(s)
Ukraine


Koronas как всегда на высоте! Не подвел и в этот раз. Было бы круто если кто нибудь выложил демки и ИПишки за 2013 год.
Go to the top of the page
  Insert nick Quick quote
+Quote Post
post Apr 3 2017, 17:50:56
Post #4

Два Литра
**
Group: Завсегдатай
Posts: 112
Releases: 0
On Forums: 7 years 9 months
Thanks: 227 time(s)
Russian Federation


320
Register


Thanks:
Go to the top of the page
  Insert nick Quick quote
+Quote Post

Reply to this topicStart new topic
1 User(s) are reading this topic (1 Guests and 0 Anonymous Users)
0 Members:

 



- Lo-Fi Version Support form
Copyrights and abuse reports form
Time is now: 25th June 2021 - 11:22:42