Welcome Guest ( Log In | Register )

> 

Здесь релизы с живыми прямыми ссылками на lossless

> Knelt Rote - Insignificance (2010), Black Metal/Grindcore
post Sep 1 2014, 14:08:14
Post #1

Serial Uploader
Group Icon
Group: V.I.P
Posts: 37,570
Releases: 35742
From: Lithuania
On Forums: 12 years 11 months
Thanks: 432090 time(s)
Lithuania


(IMG:https://metalarea.org/images/audiocovers/2014_Sep/acov_tid229480_thumb.jpg)

*Artist: Knelt Rote
*Album: Insignificance
*Year: 2010
*Genre: Black Metal/Grindcore
*Country: United States (IMG:https://metalarea.org/forum/style_images/flags/United%20States.png)
*Format: mp3@VBR276kbps
*Size: 56MB

Tracklist:
01. Immeasurable 06:50
02. Age 06:13
03. Constituent Of Oblivion 14:10
******************************
Total playing time: 27:13





Extended info
(IMG:http://metalarea.org/images/spectrogram/2014_Sep/8fd5989e582ceead9ec716408dff86f3.png)
Input File: 02. Age.mp3
Channels : 2
Sample Rate : 44100
Precision : 16-bit
Duration : 00:06:08.54 = 16252394 samples = 27640.1 CDDA sectors
File Size : 12.7M
Bit Rate : 276k
Sample Encoding: MPEG audio (layer I, II or III)
Comments :
Title=Age
Artist=Knelt Rote
Album=Insignificance
Tracknumber=2/3
Year=2012-03-31
Genre=Black Metal


Register


Go to the top of the page
  Insert nick Quick quote
+Quote Post
 
Start new topic
Replies (1 - 7)
inatas_eva_89
post Sep 1 2014, 16:33:29
Post #2

Guests team






Ого, как раз искал!
Go to the top of the page
  Insert nick Quick quote
+Quote Post
post Mar 22 2017, 07:46:51
Post #3

Group: Подсевший
Posts: 35
Releases: 0
On Forums: 7 years 9 months
Thanks: 16 time(s)
India


Reup please??
Go to the top of the page
  Insert nick Quick quote
+Quote Post
post Mar 23 2017, 01:43:28
Post #4

Going home. Flying high.
**************
Group: Металариец
Posts: 13,269
Releases: 0
From: The Land of Shadows
On Forums: 14 years 8 months
Thanks: 26817 time(s)
Russian Federation


from the web - low bitrate (128 kbps)
Register


Thanks:
(1) Wail,
Go to the top of the page
  Insert nick Quick quote
+Quote Post
post Jul 15 2020, 21:22:31
Post #5

Два Литра
**
Group: Завсегдатай
Posts: 127
Releases: 0
On Forums: 3 years 7 months
Thanks: 1 time(s)
United Nations


Someone has 320?
Go to the top of the page
  Insert nick Quick quote
+Quote Post
post Jul 18 2020, 12:38:55
Post #6

Правь статус, ####!111
**************
Group: Металариец
Posts: 9,240
Releases: 0
From: Москва
On Forums: 11 years 9 months
Thanks: 16752 time(s)
Russian Federation


Register
VBR


Thanks:
Go to the top of the page
  Insert nick Quick quote
+Quote Post
post Apr 6 2021, 00:21:05
Post #7

Два Литра
**
Group: Завсегдатай
Posts: 107
Releases: 0
From: Autonomia Kaliska
On Forums: 13 years 4 months
Thanks: 2 time(s)
Poland


320, plz
Go to the top of the page
  Insert nick Quick quote
+Quote Post
post Apr 11 2021, 10:33:25
Post #8

Group Icon
Group: S-moderation team
Posts: 20,700
Releases: 1443
From: Zagreb
On Forums: 10 years 2 months
Thanks: 94889 time(s)
Croatia


Register
Register


Thanks:
(1) Olethros,
Go to the top of the page
  Insert nick Quick quote
+Quote Post

Reply to this topicStart new topic
1 User(s) are reading this topic (1 Guests and 0 Anonymous Users)
0 Members:

 



- Lo-Fi Version Support form
Copyrights and abuse reports form
Time is now: 11th May 2021 - 08:58:39