Welcome Guest ( Log In | Register )

> Ancient Funeral Cult - Деяния Святых Апостолов (2014), Black Metal
post Sep 4 2014, 12:54:41
Post #1

Serial Uploader
Group Icon
Group: V.I.P
Posts: 37,608
Releases: 35780
From: Lithuania
On Forums: 13 years 1 month
Thanks: 433217 time(s)
Lithuania


(IMG:https://metalarea.org/images/audiocovers/2014_Sep/acov_tid229688_thumb.jpg)

*Artist: Ancient Funeral Cult
*Album: Деяния Святых Апостолов
*Year: 2014
*Genre: Black Metal
*Country: Ukraine (IMG:https://metalarea.org/forum/style_images/flags/Ukraine.png)
*Format: mp3@CBR320kbps
*Size: 73MB

Tracklist:
01. Машина Смерти 03:45
02. Ироды Христа 03:39
03. Клеветник 03:34
04. Город Зла 03:48
05. Отражение 02:49
06. Лицом В Грязь 03:50
07. Тварь 03:06
08. В Дрожащем Теле 05:44
******************************
Total playing time: 30:15


Preview 2

Technical info
(IMG:https://metalarea.org/images/spectrogram/2014_Sep/8b12f8df13c62ad3ed27d02aef97d808.png)
Input File: 03. Клеветник.mp3
Channels : 2
Sample Rate : 44100
Precision : 16-bit
Duration : 00:03:34.18 = 9445338 samples = 16063.5 CDDA sectors
File Size : 8.57M
Bit Rate : 320k
Sample Encoding: MPEG audio (layer I, II or III)
Comments :
Title=Êëåâåòíèê
Artist=Ancient Funeral Cult
Album=Äåÿíèÿ Ñâÿòûõ Àïîñòîëîâ
Tracknumber=3
Year=2014
Genre=Black Metal



Register


Go to the top of the page
  Insert nick Quick quote
+Quote Post
 
Start new topic
Replies (1 - 5)
post Sep 4 2014, 13:59:04
Post #2

Маньяк
**********
Group: Металариец
Posts: 1,299
Releases: 1
From: Беларусь
On Forums: 13 years 6 months
Thanks: 549 time(s)
Russian Federation


Это которые с Тапком Геноцида сплит выпустили! (IMG:style_emoticons/default/pray.gif)
Go to the top of the page
  Insert nick Quick quote
+Quote Post
post Sep 4 2014, 14:53:24
Post #3

Пять Литров
*****
Group: Металариец
Posts: 424
Releases: 1
On Forums: 9 years 1 month
Thanks: 182 time(s)
South Korea


ЦИТАТА(Moonshtook @ Sep 4 2014, 13:59:04) *
Это которые с Тапком Геноцида сплит выпустили! (IMG:style_emoticons/default/pray.gif)

Это настолько емкое и полное описание, что априори становится все ясно.


Go to the top of the page
  Insert nick Quick quote
+Quote Post
post Oct 22 2014, 22:12:16
Post #4

Маньяк
**********
Group: Металариец
Posts: 1,414
Releases: 0
From: Рівне
On Forums: 12 years 4 months
Thanks: 152 time(s)
Ukraine


Go to the top of the page
  Insert nick Quick quote
+Quote Post
post Jun 15 2015, 13:56:08
Post #5

Ich bin die Trauer menschlich, kommen Sie zu mir und ich werde Ihnen vergelten
**************
Group: Металариец
Posts: 4,074
Releases: 691
From: Koenigsberg
On Forums: 13 years 6 months
Thanks: 11473 time(s)
Russian Federation


Register


Thanks:
Go to the top of the page
  Insert nick Quick quote
+Quote Post
post Jun 15 2015, 14:22:35
Post #6

brutalcesar
**************
Group: Металариец
Posts: 18,236
Releases: 71
From: Рязань
On Forums: 12 years 6 months
Thanks: 10292 time(s)
Russian Federation


Всё то же...
Go to the top of the page
  Insert nick Quick quote
+Quote Post

Reply to this topicStart new topic
1 User(s) are reading this topic (1 Guests and 0 Anonymous Users)
0 Members:

 



- Lo-Fi Version Support form
Copyrights and abuse reports form
Time is now: 2nd August 2021 - 12:43:31