Welcome Guest ( Log In | Register )

> HMR - Therapy For Anger [demo] (1995), Thrash/Groove Metal (D)
post Sep 4 2014, 18:41:29
Post #1

Подвал
**************
Group: Металариец
Posts: 18,390
Releases: 10501
From: Far East (Khabarovsk)
On Forums: 14 years 3 days
Thanks: 123179 time(s)
Russian Federation


(IMG:http://metalarea.org/images/audiocovers/2014_Sep/acov_tid229706_thumb.jpg)

*Artist: HMR
*Album: Therapy For Anger [demo]
*Year: 1995
*Genre: Thrash/Groove Metal
*Country: United States (IMG:http://metalarea.org/forum/style_images/flags/United%20States.png)
*Format: mp3@CBR320kbps
*Size: 63MB

Tracklist:
1. Rivethead 03:48
2. Bleed 04:20
3. The Killing St. 03:46
4. The Ultra-Violent Wax 04:00
5. Against Your Will 03:30
6. Rx For Death 05:25
7. Speaking In Tongues 03:34
******************************
Total playing time: 28:23

(IMG:http://metalarea.org/images/myspace.png)

Extended info
HMR is short for Hatred Makes Rage.
Band from Detroit, Michigan.


Technical info
(IMG:http://metalarea.org/images/spectrogram/2014_Sep/00b8e55f5f2688cbbe2ab0751e980b31.png)
Input File: 01-Rivethead.mp3
Channels : 2
Sample Rate : 44100
Precision : 16-bit
Duration : 00:03:48.13 = 10060533 samples = 17109.8 CDDA sectors
File Size : 9.13M
Bit Rate : 320k
Sample Encoding: MPEG audio (layer I, II or III)
Comments :
Title=Rivethead
Artist=HMR (USA)
Album=Therapy For Anger (Demo)
Tracknumber=01
Year=1995
Genre=Thrash Metal



Register


Go to the top of the page
  Insert nick Quick quote
+Quote Post
 
Start new topic
Replies (1 - 4)
post Sep 5 2014, 00:47:52
Post #2

_ - = # Thrashogolic # = - _ ... а давайте поржём все вместе
**************
Group: Металариец
Posts: 21,100
Releases: 4444
From: 404
On Forums: 12 years 7 months
Thanks: 28299 time(s)
Ukraine


ЦИТАТА(Proteus_666 @ 4th September 2014 - 20:41:29) *
4. The Ultra-Violent Way 04:00
интересно, а вот в полноформатнике HMR - Religion Of The Sick (1996) опечатка?
ЦИТАТА(Konungr @ 13th August 2010 - 08:13:10) *
1. The Ultra-Violent Wax 04:46
или это две совершенно разных вещи?
Go to the top of the page
  Insert nick Quick quote
+Quote Post
grater789
post Sep 5 2014, 01:57:47
Post #3

Guests team






опечатка в архивах, прежде всего. так и переписали
Go to the top of the page
  Insert nick Quick quote
+Quote Post
post Sep 5 2014, 09:21:01
Post #4

Подвал
**************
Group: Металариец
Posts: 18,390
Releases: 10501
From: Far East (Khabarovsk)
On Forums: 14 years 3 days
Thanks: 123179 time(s)
Russian Federation


ЦИТАТА(TheThrasher @ Sep 5 2014, 02:47:52) *
опечатка? или это две совершенно разных вещи?

исправил
Go to the top of the page
  Insert nick Quick quote
+Quote Post
post Jan 25 2023, 11:22:47
Post #5

Подвал
**************
Group: Металариец
Posts: 18,390
Releases: 10501
From: Far East (Khabarovsk)
On Forums: 14 years 3 days
Thanks: 123179 time(s)
Russian Federation


new link:
Register
Go to the top of the page
  Insert nick Quick quote
+Quote Post

Reply to this topicStart new topic
2 User(s) are reading this topic (2 Guests and 0 Anonymous Users)
0 Members:

 



- Lo-Fi Version Support form
Copyrights and abuse reports form
Time is now: 28th January 2023 - 20:10:25