Welcome Guest ( Log In | Register )

> Arath - Ungedul (2014), Black Metal
post Sep 5 2014, 08:07:02
Post #1

Аннигилятор пивА
Group Icon
Group: V.I.P
Posts: 52,360
Releases: 16550
From: Koenigsberg - TILZIT
On Forums: 15 years 2 months
Thanks: 367928 time(s)
Russian Federation


(IMG:http://metalarea.org/images/audiocovers/2014_Sep/acov_tid229740_thumb.jpg)

*Artist: Arath
*Album: Ungedul
*Year: 2014
*Genre: Black Metal
*Country: Germany (IMG:http://metalarea.org/forum/style_images/flags/Germany.png)
*Format: mp3@CBR320kbps
*Size: 98MB

Tracklist:
1. Enthran Finstrwilth 02:14
2. Floss Att Dakhternath 05:13
3. Siilfangrimr 04:49
4. Dan Svartt Porthen 06:33
5. Steingrindr 04:49
6. Khamr Giftagrunn Tegstr 05:43
7. Glarkommer 10:56
******************************
Total playing time: 40:17



Extended info
Band:
Solvalt: blades and battleaxe
Murgrind: spellcasts
Grimrik: warhammers

This oldschool black metal adventure is the second part of a trilogy - the story of Arath! In this part of the journey ARATH encounters the deepest depths of his soul and has to master the dark challenges...


Technical info
(IMG:http://metalarea.org/images/spectrogram/2014_Sep/43f2e85e0e1abcb27a0a30b14ebcf869.png)
Input File: ARATH - Ungedul - 03 Siilfangrimr.mp3
Channels : 2
Sample Rate : 44100
Precision : 16-bit
Duration : 00:04:49.62 = 12772374 samples = 21721.7 CDDA sectors
File Size : 11.8M
Bit Rate : 326k
Sample Encoding: MPEG audio (layer I, II or III)
Comments :
Title=Siilfangrimr
Artist=Arath
Album=Ungedul
Tracknumber=3
Year=2014



Register


Go to the top of the page
  Insert nick Quick quote
+Quote Post
 
Start new topic
Replies (1 - 3)
post Feb 12 2017, 22:25:37
Post #2

Маньяк
**********
Group: Металариец
Posts: 1,299
Releases: 1
From: Беларусь
On Forums: 13 years 6 months
Thanks: 549 time(s)
Russian Federation


Перезалейте, пожалуйста!
Go to the top of the page
  Insert nick Quick quote
+Quote Post
post Feb 12 2017, 23:16:00
Post #3

Going home. Flying high.
**************
Group: Металариец
Posts: 13,373
Releases: 0
From: The Land of Shadows
On Forums: 14 years 11 months
Thanks: 27253 time(s)
Russian Federation


from the web
Register


Go to the top of the page
  Insert nick Quick quote
+Quote Post
post Jul 21 2021, 18:28:06
Post #4

Три Литра
***
Group: Завсегдатай
Posts: 281
Releases: 0
On Forums: 1 year 8 months
Thanks: 103 time(s)
Unknown


Думаю, что это самый интересный БМ из Германии, если ещё не учитывать пару композиций от Absurd и одну от Bilskirnir. (IMG:style_emoticons/default/smile1.gif)
Go to the top of the page
  Insert nick Quick quote
+Quote Post

Reply to this topicStart new topic
1 User(s) are reading this topic (1 Guests and 0 Anonymous Users)
0 Members:

 



- Lo-Fi Version Support form
Copyrights and abuse reports form
Time is now: 27th July 2021 - 20:46:26