Welcome Guest ( Log In | Register )

> Ashes - Hrēow (2014), Raw Black Metal/Ambient (D8)
post Sep 21 2014, 23:59:53
Post #1

Правь статус, ####!111
**************
Group: Металариец
Posts: 29,216
Releases: 21435
From: Г.Харьков
On Forums: 10 years 1 week
Thanks: 442684 time(s)
Unknown


(IMG:http://metalarea.org/images/audiocovers/2014_Sep/acov_tid230652_thumb.jpg)

*Artist: Ashes
*Album: Hrēow
*Year: 2014
*Genre: Raw Black Metal/Ambient
*Country: United Kingdom (IMG:http://metalarea.org/forum/style_images/flags/United%20Kingdom.png)
*Format: mp3@CBR320kbps
*Size: 129MB

Tracklist:
1. Shifting Mountains 07:30
2. Stone Spiral 07:20
3. Monuments to Loss 07:02
4. The Hills That Cradled 04:17
5. Heralding the Storm 11:57
6. Crafting Ruin 06:37
7. Shores of Promise 06:23
8. Hrēow 05:23
******************************
Total playing time: 56:29



Technical info
(IMG:http://metalarea.org/images/spectrogram/2014_Sep/78954e52d308185c0973f58ff4690fe2.png)
Input File: 02. Stone Spiral.mp3
Channels : 2
Sample Rate : 44100
Precision : 16-bit
Duration : 00:07:18.33 = 19330177 samples = 32874.5 CDDA sectors
File Size : 17.7M
Bit Rate : 323k
Sample Encoding: MPEG audio (layer I, II or III)
Comments :
Title=Stone Spiral
Artist=Ashes
Album=HrД“ow
Tracknumber=02/08
Year=2014



Register


Go to the top of the page
  Insert nick Quick quote
+Quote Post
 
Start new topic
Replies (1 - 2)
post Sep 25 2014, 05:22:20
Post #2

 
*********
Group: Металариец
Posts: 900
Releases: 119
From: Wintercult
On Forums: 14 years 1 month
Thanks: 3030 time(s)
Russian Federation


Да где ж вы тут raw-то нашли? Обычный атмосферик, с налётом пост-блэка даже, я бы сказал.
Go to the top of the page
  Insert nick Quick quote
+Quote Post
post Mar 2 2019, 15:29:42
Post #3

Ich bin die Trauer menschlich, kommen Sie zu mir und ich werde Ihnen vergelten
**************
Group: Металариец
Posts: 4,075
Releases: 691
From: Koenigsberg
On Forums: 14 years 4 months
Thanks: 11759 time(s)
Russian Federation


Register



Thanks:
(1) stormhatt,
Go to the top of the page
  Insert nick Quick quote
+Quote Post

Reply to this topicStart new topic
2 User(s) are reading this topic (2 Guests and 0 Anonymous Users)
0 Members:

 



- Lo-Fi Version Support form
Copyrights and abuse reports form
Time is now: 18th May 2022 - 13:03:03