Welcome Guest ( Log In | Register )

 
Reply to this topicStart new topic
> Grst - Plague Seed (2014), Black Metal
post Sep 25 2014, 15:32:18
Post #1

Serial Uploader
Group Icon
Group: V.I.P
Posts: 37,921
Releases: 36064
From: Lithuania
On Forums: 13 years 5 months
Thanks: 440048 time(s)
Lithuania


(IMG:https://metalarea.org/images/audiocovers/2014_Sep/acov_tid230865_thumb.jpg)

*Artist: Grst
*Album: Plague Seed
*Year: 2014
*Genre: Black Metal
*Country: United States (IMG:https://metalarea.org/forum/style_images/flags/United%20States.png)
*Format: mp3@CBR320kbps
*Size: 85MB

Tracklist:
01. Plague Seed 07:15
02. Pondering The Wastes 16:09
03. Abandon 03:26
04. Wrathfully Trodden 09:48
******************************
Total playing time: 36:38


(IMG:https://metalarea.org/images/youtube.png)

Technical info
(IMG:https://metalarea.org/images/spectrogram/2014_Sep/bdd5663d173dd175504ecd4e05f5d880.png)
Input File: 04. Wrathfully Trodden.mp3
Channels : 2
Sample Rate : 44100
Precision : 16-bit
Duration : 00:09:48.10 = 25935078 samples = 44107.3 CDDA sectors
File Size : 23.8M
Bit Rate : 323k
Sample Encoding: MPEG audio (layer I, II or III)
Comments :
Title=Wrathfully Trodden
Artist=Grst
Album=Plague Seed
Tracknumber=4
Year=2014



Register


Go to the top of the page
  Insert nick Quick quote
+Quote Post

Reply to this topicStart new topic
1 User(s) are reading this topic (1 Guests and 0 Anonymous Users)
0 Members:

 



- Lo-Fi Version Support form
Copyrights and abuse reports form
Time is now: 3rd December 2021 - 05:48:32