Welcome Guest ( Log In | Register )

Объявления

* gmail.com упорно продолжает считать почту с нас "unsolicited" и отбивает в том числе и письма активации, поэтому просьба использовать альтернативные почтовые ящики.
------------
* gmail.com continues reject all mail from us as "unsolicited" (activation mails too) therefore please use alternate mail servers.
 
Reply to this topicStart new topic
> Azylya - Thanatos' Insanity [ep] (2011), Gothic Metal
post Sep 26 2014, 08:21:14
Post #1

Join my religion, or die
**************
Group: Металариец
Posts: 11,335
Releases: 1956
From: Питера
On Forums: 14 years 8 months
Thanks: 25938 time(s)
Russian Federation


(IMG:http://metalarea.org/images/audiocovers/2014_Sep/acov_tid230907_thumb.jpg)

*Artist: Azylya
*Album: Thanatos' Insanity [ep]
*Year: 2011
*Genre: Gothic Metal
*Country: Belgium (IMG:http://metalarea.org/forum/style_images/flags/Belgium.png)
*Format: mp3@CBR320kbps
*Size: 55MB

Tracklist:
01. The Beginning
02. The Incest
03. Woodscape
04. Delirius
05. Azylya
******************************
Total playing time: 22:32

(IMG:http://metalarea.org/images/youtube.png)

Technical info
(IMG:http://metalarea.org/images/spectrogram/2014_Sep/448d8583411480814540b2c7871b89f2.png)
Input File: 02 - Incest.mp3
Channels : 2
Sample Rate : 44100
Precision : 16-bit
Duration : 00:05:32.60 = 14667616 samples = 24944.9 CDDA sectors
File Size : 13.4M
Bit Rate : 323k
Sample Encoding: MPEG audio (layer I, II or III)
Comments :
Title=Incest
Artist=Azylya
Album=Thanatos' Insanity
Tracknumber=2
Year=2011
Genre=Metal



Register


Go to the top of the page
  Insert nick Quick quote
+Quote Post

Reply to this topicStart new topic
1 User(s) are reading this topic (1 Guests and 0 Anonymous Users)
0 Members:

 



- Lo-Fi Version Support form
Copyrights and abuse reports form
Time is now: 14th June 2024 - 09:33:47