Welcome Guest ( Log In | Register )

> Plateau Sigma - The True Shape Of Eskatos (2014), Funeral Doom/Death Metal
post Sep 28 2014, 17:11:48
Post #1

Правь статус, ####!111
**************
Group: Металариец
Posts: 29,287
Releases: 21502
From: Г.Харьков
On Forums: 10 years 2 weeks
Thanks: 444041 time(s)
Unknown


(IMG:http://metalarea.org/images/audiocovers/2014_Sep/acov_tid231002_thumb.jpg)

*Artist: Plateau Sigma
*Album: The True Shape Of Eskatos
*Year: 2014
*Genre: Funeral Doom/Death Metal
*Country: Italy (IMG:http://metalarea.org/forum/style_images/flags/Italy.png)
*Format: mp3@CBR320kbps
*Size: 156MB

Tracklist:
01. The Initiation
02. Satyriasis And The Autumn Ends
03. Stalingrad
04. Ordinis Supernova Sex Horarum
05. The River 1917
06. Angst
07. Amber Eyes
******************************
Total playing time: 1:08:17


(IMG:http://metalarea.org/images/youtube.png)

Technical info
(IMG:http://metalarea.org/images/spectrogram/2014_Sep/76d596f224ed35880434e0d0f57c8610.png)
Input File: 02 - Satyriasis and the Autumn Ends.mp3
Channels : 2
Sample Rate : 44100
Precision : 16-bit
Duration : 00:09:11.16 = 24306156 samples = 41337 CDDA sectors
File Size : 22.1M
Bit Rate : 321k
Sample Encoding: MPEG audio (layer I, II or III)
Comments :
Title=Satyriasis and the Autumn Ends
Artist=Plateau Sigma
Album=The True Shape Of Eskatos
Tracknumber=2
Year=2014



Register


Go to the top of the page
  Insert nick Quick quote
+Quote Post
 
Start new topic
Replies (1 - 7)
post Sep 29 2014, 23:08:53
Post #2

Правь статус, ####!111
**************
Group: Металариец
Posts: 2,462
Releases: 12
From: Canada
On Forums: 14 years 11 months
Thanks: 1705 time(s)
Canada




Thanks:
Go to the top of the page
  Insert nick Quick quote
+Quote Post
post Sep 30 2014, 00:39:15
Post #3

Шесть Литров
******
Group: Металариец
Posts: 551
Releases: 0
On Forums: 13 years 1 week
Thanks: 194 time(s)
Belarus


Молодцы.Держат марку и звучание прикрутили оригинальное.Поклонникам стиля,стоит прикупить в коллекцию.
Go to the top of the page
  Insert nick Quick quote
+Quote Post
post Sep 30 2014, 17:29:12
Post #4

Совки, гулаги, дефициты
***********
Group: Металариец
Posts: 1,787
Releases: 0
From: Беларусь, Минск
On Forums: 14 years 10 months
Thanks: 896 time(s)
Belarus


Я вот только не пойму, зачем они прикручивают A-HA, лично мне это дико не нравится.
Go to the top of the page
  Insert nick Quick quote
+Quote Post
post Nov 11 2014, 16:57:40
Post #5

FOLK METAL FEVER
**************
Group: Металариец
Posts: 2,291
Releases: 6
From: Kyiv
On Forums: 14 years 6 months
Thanks: 300 time(s)
Ukraine


ЦИТАТА(andreikun @ Sep 30 2014, 20:29:12) *
Я вот только не пойму, зачем они прикручивают A-HA, лично мне это дико не нравится.


А мне бы побольше этой А-Хи и поменешьше занудного фунерального вторсырья (IMG:style_emoticons/default/smile1.gif)
Go to the top of the page
  Insert nick Quick quote
+Quote Post
post Mar 9 2016, 19:17:32
Post #6

brutalcesar
**************
Group: Металариец
Posts: 18,333
Releases: 75
From: Рязань
On Forums: 13 years 4 months
Thanks: 10622 time(s)
Russian Federation


Register


Go to the top of the page
  Insert nick Quick quote
+Quote Post
post Mar 28 2016, 11:35:50
Post #7

####!111
**************
Group: Металариец
Posts: 4,651
Releases: 142
From: The Mountain Of DOOM
On Forums: 14 years 7 months
Thanks: 6694 time(s)
Russian Federation


Тот случай, когда находишь что-то оригинальное в жанре, но на шедевр это не тянет к сожалению.
Из тегов нужно убрать "фьюнерал" и обязательно добавить "прог", которого чем дальше, тем больше
Go to the top of the page
  Insert nick Quick quote
+Quote Post
post Nov 30 2021, 17:42:37
Post #8

.
**************
Group: Металариец
Posts: 2,507
Releases: 2
On Forums: 13 years 10 months
Thanks: 8045 time(s)
Unknown


web
Register


Thanks:
(1) Veligor,
Go to the top of the page
  Insert nick Quick quote
+Quote Post

Reply to this topicStart new topic
2 User(s) are reading this topic (2 Guests and 0 Anonymous Users)
0 Members:

 



- Lo-Fi Version Support form
Copyrights and abuse reports form
Time is now: 25th May 2022 - 05:29:47