Welcome Guest ( Log In | Register )

> Black Autumn - Losing The Sun (2014), Ambient Black/Doom Metal
post Oct 1 2014, 11:26:39
Post #1

Group: Дух
Posts: 6
Releases: 2
On Forums: 13 years 4 weeks
Thanks: 137 time(s)
Belarus


(IMG:http://metalarea.org/images/audiocovers/2014_Oct/acov_tid231149_thumb.jpg)

*Artist: Black Autumn
*Album: Losing The Sun
*Year: 2014
*Genre: Ambient Black/Doom Metal
*Country: Germany (IMG:http://metalarea.org/forum/style_images/flags/Germany.png)
*Format: mp3@CBR320kbps
*Size: 95MB

Tracklist:
1. Losing the Sun 05:29
2. St. Elm's Fire 06:35
3. Laetitia 06:21
4. From Whence We Came 05:26
5. The Distance 04:50
6. A Corruption of Innocence 05:20
7. In the Rains of June 05:03
******************************
Total playing time: 39:04



Technical info
(IMG:http://metalarea.org/images/spectrogram/2014_Oct/04b9b3805e82f78e06b0390ab16b689c.png)
Input File: Black Autumn - Losing The Sun - 07 In The Rains Of June.mp3
Channels : 2
Sample Rate : 44100
Precision : 16-bit
Duration : 00:05:03.49 = 13383997 samples = 22761.9 CDDA sectors
File Size : 12.2M
Bit Rate : 323k
Sample Encoding: MPEG audio (layer I, II or III)
Comments :
Title=In The Rains Of June
Artist=Black Autumn
Album=Losing The Sun
Tracknumber=7
Year=2014



Register


Go to the top of the page
  Insert nick Quick quote
+Quote Post
 
Start new topic
Replies (1 - 3)
post Oct 3 2014, 21:50:27
Post #2

Самый Тихий Час
**************
Group: Металариец
Posts: 6,493
Releases: 6
On Forums: 11 years 8 months
Thanks: 3046 time(s)
Unknown


Чуть не пропустил. Как всегда круто!
Go to the top of the page
  Insert nick Quick quote
+Quote Post
post Oct 4 2014, 11:06:19
Post #3

Group: Дух
Posts: 1
Releases: 0
On Forums: 12 years 7 months
Thanks: 0 time(s)
Russian Federation


Любимая моя амбиент группа! Благодарю!
Go to the top of the page
  Insert nick Quick quote
+Quote Post
post Jul 11 2015, 21:22:42
Post #4

Четыре Литра
****
Group: Металариец
Posts: 314
Releases: 0
On Forums: 15 years 1 week
Thanks: 189 time(s)
Belarus


Register


Go to the top of the page
  Insert nick Quick quote
+Quote Post

Reply to this topicStart new topic
2 User(s) are reading this topic (2 Guests and 0 Anonymous Users)
0 Members:

 



- Lo-Fi Version Support form
Copyrights and abuse reports form
Time is now: 4th August 2021 - 13:51:23