Welcome Guest ( Log In | Register )

> И неформату есть предел.

Рэп/хип-хоп/шансон/поп удаляются. Для них есть свои порталы.

> Wim Mertens - Struggle For Pleasure/Double Entendre (2012), Modern Classical/Minimal
post Oct 4 2014, 03:55:43
Post #1

Социопат.Маргинал. Мизантроп.Нигилист. Перверзный нарциссист.
**************
Group: Металариец
Posts: 5,571
Releases: 666
From: Город-герой Ленинград
On Forums: 11 years 3 months
Thanks: 6515 time(s)
Russian Federation


(IMG:https://metalarea.org/images/audiocovers/2014_Oct/acov_tid231303_thumb.jpg)

*Artist: Wim Mertens
*Album: Struggle For Pleasure/Double Entendre
*Year: 2012
*Genre: Modern Classical/Minimal
*Country: Belgium (IMG:https://metalarea.org/forum/style_images/flags/Belgium.png)
*Format: mp3@CBR320kbps
*Size: 211MB

Tracklist:
CD 1:Struggle For Pleasure
01. Tourtour 2:38
02. Struggle For Pleasure 4:02
03. Salernes 3:06
04. Close Cover 3:22
05. Bresque 2:40
06. Gentleman Of Leisure 4:33
07. Inergys 3:15
08. Circular Breathing 3:52
09. Mildly Skeeming 7:16
10. 4 mains 3:18
11. Multiple 12 6:45
12. Inergys (Reprise) 7:01
CD 2:Double Entendre
01. Line Bundles 3:25
02. Sieve Coverings 4:37
03. Chordal Graphs 0:39
04. Suite exacte 0:42
05. Gentleman Of Leisure* 4:17
06. Unwinding Nests 5:03
07. Without Fioritures 4:04
08. Simple Repose 2:31
09. Salernes 4:12
10. Families Of Characters 5:25
11. Rings Of Invariants 4:32
12. Cryptic Reserve 3:48
******************************
Total playing time: 1:35:03

(IMG:https://metalarea.org/images/youtube.png)

Extended info
2012 – Struggle for Pleasure / Double Entendre (2-CDs: one reissue, one of unreleased material from that period)


Technical info
(IMG:https://metalarea.org/images/spectrogram/2014_Oct/3e90cc7a0fbf46b571c89b0256792701.png)
Input File: 01 - Tourtour.mp3
Channels : 2
Sample Rate : 44100
Precision : 16-bit
Duration : 00:02:38.29 = 6980721 samples = 11872 CDDA sectors
File Size : 6.33M
Bit Rate : 320k
Sample Encoding: MPEG audio (layer I, II or III)
Comments :
Title=Tourtour
Artist=Wim Mertens
Album=Struggle For Pleasure
Tracknumber=01/12
Year=2012
Genre=Classical
Discnumber=1/2



Register
Go to the top of the page
  Insert nick Quick quote
+Quote Post
 
Start new topic
Replies (1 - 1)
post Oct 4 2014, 17:07:56
Post #2
BAN
Banned till
Apr 1 4760, 02:32:02



Круто - порно фото. негры бабу шпилят. интересно содержание.


Thanks:
(1) SSBandera,
Go to the top of the page
  Insert nick Quick quote
+Quote Post

Reply to this topicStart new topic
2 User(s) are reading this topic (2 Guests and 0 Anonymous Users)
0 Members:

 



- Lo-Fi Version Support form
Copyrights and abuse reports form
Time is now: 24th May 2022 - 18:46:52