Welcome Guest ( Log In | Register )

> И неформату есть предел.

Рэп/хип-хоп/шансон/поп удаляются. Для них есть свои порталы.

 
Reply to this topicStart new topic
> Андрей Хрустов - Ни людей, ни бога, ни ведущей к ним дороги (2014), Noise/Lo-fi
CJFox
post Oct 4 2014, 18:48:23
Post #1

Guests team






(IMG:http://metalarea.org/images/audiocovers/2014_Oct/acov_tid231377.jpg)

*Artist: Андрей Хрустов
*Album: Ни людей, ни бога, ни ведущей к ним дороги
*Year: 2014
*Genre: Noise/Lo-fi
*Country: Russian Federation (IMG:http://metalarea.org/forum/style_images/flags/Russian%20Federation.png)
*Format: mp3@CBR320kbps
*Size: 71MB

Tracklist:
01. Ни людей, ни бога, ни ведущей к ним дороги
******************************
Total playing time: 38:51

Technical info
(IMG:http://metalarea.org/images/spectrogram/2014_Oct/ff09f8bd7b67956c7c32bc7691e127b6.png)
Input File: 01. Ни людей, ни бога, ни ведущей к ним дороги.mp3
Channels : 2
Sample Rate : 44100
Precision : 16-bit
Duration : 00:38:51.90 = 102836570 samples = 174892 CDDA sectors
File Size : 93.3M
Bit Rate : 320k
Sample Encoding: MPEG audio (layer I, II or III)
Comments :
Title=Íè ëþäåé, íè áîãà, íè âåäóùåé ê íèì äîðîãè
Artist=Àíäðåé Õðóñòîâ
Album=Íè ëþäåé, íè áîãà, íè âåäóùåé ê íèì äîðîãè
Tracknumber=1
Year=2014
Genre=39



Register
Go to the top of the page
  Insert nick Quick quote
+Quote Post

Reply to this topicStart new topic
1 User(s) are reading this topic (1 Guests and 0 Anonymous Users)
0 Members:

 



- Lo-Fi Version Support form
Copyrights and abuse reports form
Time is now: 1st July 2022 - 06:43:06