Welcome Guest ( Log In | Register )

> И неформату есть предел.

Рэп/хип-хоп/шансон/поп удаляются. Для них есть свои порталы.

 
Reply to this topicStart new topic
> ДК - Пожар в Мавзолее (1990), Avantgarde/Punk Rock
post Oct 5 2014, 10:22:21
Post #1

Социопат.Маргинал. Мизантроп.Нигилист. Перверзный нарциссист.
**************
Group: Металариец
Posts: 5,571
Releases: 666
From: Город-герой Ленинград
On Forums: 11 years 4 months
Thanks: 6518 time(s)
Russian Federation


(IMG:https://metalarea.org/images/audiocovers/2014_Oct/acov_tid231399_thumb.jpg)

*Artist: ДК
*Album: Пожар в Мавзолее
*Year: 1990
*Genre: Avantgarde/Punk Rock
*Country: Russian Federation (IMG:https://metalarea.org/forum/style_images/flags/Russian%20Federation.png)
*Format: mp3@CBR320kbps
*Size: 86MB

Tracklist:
01. Часть 1
02. Часть 2
******************************
Total playing time: 39:38

(IMG:https://metalarea.org/images/youtube.png)

Technical info
(IMG:https://metalarea.org/images/spectrogram/2014_Oct/820a11d2a10bb4ab1d735f2bf0151b52.png)
Input File: 01-Первая сторона.mp3
Channels : 2
Sample Rate : 44100
Precision : 16-bit
Duration : 00:17:07.47 = 45311383 samples = 77060.2 CDDA sectors
File Size : 41.1M
Bit Rate : 320k
Sample Encoding: MPEG audio (layer I, II or III)
Comments :
Title=Первая сторона
Artist=ДК
Album=Пожар в мавзолее
Tracknumber=01
Year=1990
Genre=Avantgarde



Register


Thanks:
Go to the top of the page
  Insert nick Quick quote
+Quote Post

Reply to this topicStart new topic
1 User(s) are reading this topic (1 Guests and 0 Anonymous Users)
0 Members:

 



- Lo-Fi Version Support form
Copyrights and abuse reports form
Time is now: 1st July 2022 - 05:54:03