Welcome Guest ( Log In | Register )

> Mausoleum Gate - Mausoleum Gate (2014), Heavy Metal
post Oct 10 2014, 09:36:52
Post #1

Serial Uploader
Group Icon
Group: V.I.P
Posts: 38,972
Releases: 37108
From: Lithuania
On Forums: 14 years 3 months
Thanks: 463725 time(s)
Lithuania


(IMG:https://metalarea.org/images/audiocovers/2014_Oct/acov_tid231673_thumb.jpg)

*Artist: Mausoleum Gate
*Album: Mausoleum Gate
*Year: 2014
*Genre: Heavy Metal
*Country: Finland (IMG:https://metalarea.org/forum/style_images/flags/Finland.png)
*Format: mp3@CBR320kbps
*Size: 93MB

Tracklist:
01. Magic Of The Gypsy Queen 04:22
02. Demon Droid 04:18
03. Lost Beyond The Sun 08:58
04. Mercenaries Of Steel 05:56
05. There Must Be Demons 05:04
06. Mausoleum Gate 11:36
******************************
Total playing time: 40:14

(IMG:https://metalarea.org/images/myspace.png)


Technical info
(IMG:https://metalarea.org/images/spectrogram/2014_Oct/99dbeb2f39b62af94fa87e8d0e1d2cd6.png)
Input File: 02. Demon Droid.mp3
Channels : 2
Sample Rate : 44100
Precision : 16-bit
Duration : 00:04:18.69 = 11408273 samples = 19401.8 CDDA sectors
File Size : 10.5M
Bit Rate : 324k
Sample Encoding: MPEG audio (layer I, II or III)
Comments :
Title=Demon Droid
Artist=Mausoleum Gate
Album=Mausoleum Gate
Tracknumber=2/6
Year=2014



Register


Go to the top of the page
  Insert nick Quick quote
+Quote Post
 
Start new topic
Replies (1 - 3)
post Jul 14 2015, 04:56:11
Post #2

Going home. Flying high.
**************
Group: Металариец
Posts: 13,606
Releases: 0
From: The Land of Shadows
On Forums: 16 years 1 month
Thanks: 29800 time(s)
Russian Federation


from the web
Please click the mouse button on "Бесплатно - с просмотром рекламы" before download
Register


Thanks:
(1) bloodwind,
Go to the top of the page
  Insert nick Quick quote
+Quote Post
post May 3 2016, 10:44:21
Post #3

Маньяк
**********
Group: Металариец
Posts: 1,255
Releases: 18
From: Lake-City
On Forums: 13 years 3 months
Thanks: 2334 time(s)
Russian Federation


Register


Thanks:
(1) varlam4,
Go to the top of the page
  Insert nick Quick quote
+Quote Post
post Sep 9 2022, 18:11:02    Сейчас играет: Re-up please ;-)
Post #4

Правь статус, ####!111
**************
Group: Металариец
Posts: 2,452
Releases: 0
From: Sofia
On Forums: 15 years 6 days
Thanks: 83 time(s)
Bulgaria


Re-up please (IMG:style_emoticons/default/pray.gif) (IMG:style_emoticons/default/pray.gif) (IMG:style_emoticons/default/pray.gif)
Go to the top of the page
  Insert nick Quick quote
+Quote Post

Reply to this topicStart new topic
2 User(s) are reading this topic (2 Guests and 0 Anonymous Users)
0 Members:

 



- Lo-Fi Version Support form
Copyrights and abuse reports form
Time is now: 3rd October 2022 - 10:23:12