Welcome Guest ( Log In | Register )

> Fallen Order - The Age Of Kings [ep] (2014), Heavy Metal
post Oct 12 2014, 13:53:10
Post #1

Правь статус, ####!111
**************
Group: Металариец
Posts: 26,713
Releases: 19250
From: Г.Харьков
On Forums: 9 years 2 months
Thanks: 385193 time(s)
Unknown


(IMG:http://metalarea.org/images/audiocovers/2014_Oct/acov_tid231760_thumb.jpg)

*Artist: Fallen Order
*Album: The Age Of Kings [ep]
*Year: 2014
*Genre: Heavy Metal
*Country: New Zealand (IMG:http://metalarea.org/forum/style_images/flags/New%20Zealand.png)
*Format: mp3@CBR320kbps
*Size: 68MB

Tracklist:
1. Stand Together 06:06
2. Sign Your Life Away 04:06
3. Falling Down 05:16
4. Beyond Death 05:45
5. The Age of Kings 09:17
******************************
Total playing time: 30:30



Technical info
(IMG:http://metalarea.org/images/spectrogram/2014_Oct/d7ffab887355905f63c14eb72a79f972.png)
Input File: 02. Sign Your Life Away.mp3
Channels : 2
Sample Rate : 44100
Precision : 16-bit
Duration : 00:04:05.84 = 10841456 samples = 18437.9 CDDA sectors
File Size : 9.84M
Bit Rate : 320k
Sample Encoding: MPEG audio (layer I, II or III)
Comments :
Title=Sign Your Life Away
Artist=Fallen Order
Album=The Age of Kings
Tracknumber=2
Year=2014
Genre=Heavy Metal



Register


Go to the top of the page
  Insert nick Quick quote
+Quote Post
 
Start new topic
Replies (1 - 2)
post Nov 10 2014, 12:37:50
Post #2

Наливай!
**************
Group: Металариец
Posts: 6,023
Releases: 27
From: Москва-Бибирево
On Forums: 13 years 4 months
Thanks: 3120 time(s)
Russian Federation


Вроде бы и не полохо, но уж больно все песни на один манер.. (IMG:style_emoticons/default/hmm.gif)
Go to the top of the page
  Insert nick Quick quote
+Quote Post
post Apr 9 2021, 05:21:10
Post #3

Три Литра
***
Group: Завсегдатай
Posts: 283
Releases: 0
From: Russian Federation
On Forums: 14 years 11 months
Thanks: 19 time(s)
Russian Federation


Thank you very much, but unfortunately the link is no longer available (IMG:style_emoticons/default/6.gif)
Can anyone help?
Go to the top of the page
  Insert nick Quick quote
+Quote Post

Reply to this topicStart new topic
1 User(s) are reading this topic (1 Guests and 0 Anonymous Users)
0 Members:

 



- Lo-Fi Version Support form
Copyrights and abuse reports form
Time is now: 29th July 2021 - 14:29:52