Welcome Guest ( Log In | Register )

> Atriarch - An Unending Pathway (2014), Sludge/Doom Metal (D4)
post Oct 24 2014, 08:45:42
Post #1

Serial Uploader
Group Icon
Group: V.I.P
Posts: 37,573
Releases: 35745
From: Lithuania
On Forums: 12 years 11 months
Thanks: 432149 time(s)
Lithuania


(IMG:https://metalarea.org/images/audiocovers/2014_Oct/acov_tid232496_thumb.jpg)

*Artist: Atriarch
*Album: An Unending Pathway
*Year: 2014
*Genre: Sludge/Doom Metal
*Country: United States (IMG:https://metalarea.org/forum/style_images/flags/United%20States.png)
*Format: mp3@CBR320kbps
*Size: 92MB

Tracklist:
01. Entropy 05:54
02. Collapse 04:26
03. Revenant 05:18
04. Bereavement 04:07
05. Rot 07:27
06. Allfather 06:22
07. Veil 06:39
******************************
Total playing time: 40:13

(IMG:https://metalarea.org/images/myspace.png)



(IMG:https://metalarea.org/images/youtube.png)

Technical info
(IMG:https://metalarea.org/images/spectrogram/2014_Oct/151e4dd93e6ac1a06ede43bf16c0db73.png)
Input File: 02. Collapse.mp3
Channels : 2
Sample Rate : 44100
Precision : 16-bit
Duration : 00:04:26.66 = 11759662 samples = 19999.4 CDDA sectors
File Size : 10.7M
Bit Rate : 321k
Sample Encoding: MPEG audio (layer I, II or III)
Comments :
Title=Collapse
Artist=Atriarch
Album=An Unending Pathway
Tracknumber=02
Year=2014



Register


Go to the top of the page
  Insert nick Quick quote
+Quote Post
 
Start new topic
Replies (1 - 5)
post Oct 27 2014, 23:25:58
Post #2

Void
******
Group: Металариец
Posts: 612
Releases: 8
On Forums: 13 years 11 months
Thanks: 680 time(s)
Antarctica


Ух ты, количество комментариев!
Предыдущий же шедевром был.
Go to the top of the page
  Insert nick Quick quote
+Quote Post
post Jan 3 2015, 21:07:30
Post #3

Ничего не знаю. Ничего.
***********
Group: Металариец
Posts: 1,509
Releases: 47
From: вержение
On Forums: 12 years 7 months
Thanks: 1682 time(s)
Russian Federation


Не, шедевром был дебютник. Мистический, захватывающий и терзающий душу. Потом и здесь мне в музыке как-то стало не хватать искренности.
Go to the top of the page
  Insert nick Quick quote
+Quote Post
post Oct 24 2017, 18:18:56
Post #4

Шесть Литров
******
Group: Металариец
Posts: 685
Releases: 0
From: Hell
On Forums: 5 years 9 months
Thanks: 25 time(s)
Afghanistan


Please reupload..
Go to the top of the page
  Insert nick Quick quote
+Quote Post
post Oct 24 2017, 18:53:31
Post #5

Forever Underground
**************
Group: Металариец
Posts: 8,250
Releases: 0
On Forums: 6 years 1 month
Thanks: 11302 time(s)
Unknown


From the web, @320:
Register
Go to the top of the page
  Insert nick Quick quote
+Quote Post
post May 4 2021, 10:14:25
Post #6

горечь и пустота
*******
Group: Металариец
Posts: 747
Releases: 27
From: Minsk (Blr)
On Forums: 13 years 11 months
Thanks: 721 time(s)
Unknown


Какой-то утяжелённый пост-панк получился.
Go to the top of the page
  Insert nick Quick quote
+Quote Post

Reply to this topicStart new topic
2 User(s) are reading this topic (2 Guests and 0 Anonymous Users)
0 Members:

 



- Lo-Fi Version Support form
Copyrights and abuse reports form
Time is now: 13th May 2021 - 11:09:12