Welcome Guest ( Log In | Register )

Объявления

* gmail.com упорно продолжает считать почту с нас "unsolicited" и отбивает в том числе и письма активации, поэтому просьба использовать альтернативные почтовые ящики.
------------
* gmail.com continues reject all mail from us as "unsolicited" (activation mails too) therefore please use alternate mail servers.
> Vortex - Remains (2014), Heavy Metal
post Oct 27 2014, 14:56:14
Post #1

Serial Uploader
Group Icon
Group: V.I.P
Posts: 42,638
Releases: 40702
From: Lithuania
On Forums: 15 years 11 months
Thanks: 521648 time(s)
Lithuania


(IMG:http://metalarea.org/images/audiocovers/2014_Oct/acov_tid232718_thumb.jpg)

*Artist: Vortex
*Album: Remains
*Year: 2014
*Genre: Heavy Metal
*Country: Netherlands (IMG:http://metalarea.org/forum/style_images/flags/Netherlands.png)
*Format: mp3@CBR320kbps
*Size: 105MB

Tracklist:
01. Feverish Eyes 04:45
02. Babylon Flashback 04:54
03. Nightliner 04:47
04. Marduk 04:58
05. Brainbugs 05:05
06. Remains 04:40
07. Eat Your Heart Out 05:00
08. What Are You Anyway 04:40
09. The Fightin' Flower 05:06
10. Windows Crashin' Bats 04:50
******************************
Total playing time: 48:45

(IMG:http://metalarea.org/images/myspace.png)

(IMG:http://metalarea.org/images/youtube.png)

Technical info
(IMG:http://metalarea.org/images/spectrogram/2014_Oct/bacb1672c94a96b801bc587b89d83517.png)
Input File: 02. Babylon Flashback.mp3
Channels : 2
Sample Rate : 44100
Precision : 16-bit
Duration : 00:04:54.56 = 12990140 samples = 22092.1 CDDA sectors
File Size : 11.8M
Bit Rate : 320k
Sample Encoding: MPEG audio (layer I, II or III)
Comments :
Title=Babylon Flashback
Artist=Vortex
Album=Remains
Tracknumber=02
Year=2014
Genre=Heavy Metal



Register


Go to the top of the page
  Insert nick Quick quote
+Quote Post
 
Start new topic
Replies (1 - 3)
post Nov 2 2014, 08:21:04
Post #2

Пять Литров
*****
Group: Металариец
Posts: 488
Releases: 0
On Forums: 18 years 4 months
Thanks: 20 time(s)
Russian Federation


Wow...thanks a lot...Cult band!
Go to the top of the page
  Insert nick Quick quote
+Quote Post
post Sep 3 2019, 20:41:47
Post #3

Ich bin die Trauer menschlich, kommen Sie zu mir und ich werde Ihnen vergelten
**************
Group: Металариец
Posts: 4,077
Releases: 691
From: Koenigsberg
On Forums: 16 years 4 months
Thanks: 12640 time(s)
Russian Federation


Register



Thanks:
(1) wgs73,
Go to the top of the page
  Insert nick Quick quote
+Quote Post
post Sep 3 2019, 20:43:01
Post #4

Правь статус, ####!111
**************
Group: Металариец
Posts: 56,003
Releases: 1201
On Forums: 14 years 11 months
Thanks: 54872 time(s)
Russian Federation


ЦИТАТА(artscald @ Sep 3 2019, 23:41:47) *


Почему используешь такой шротский обменник? Хорошо хоть не Турбобит.
Go to the top of the page
  Insert nick Quick quote
+Quote Post

Reply to this topicStart new topic
2 User(s) are reading this topic (2 Guests and 0 Anonymous Users)
0 Members:

 



- Lo-Fi Version Support form
Copyrights and abuse reports form
Time is now: 30th May 2024 - 22:33:08