Welcome Guest ( Log In | Register )

> Southern Front - Death Throes (2014), Thrash/Groove Metal
post Nov 17 2014, 18:24:44
Post #1

Правь статус, ####!111
**************
Group: Металариец
Posts: 26,758
Releases: 19318
From: Г.Харьков
On Forums: 9 years 2 months
Thanks: 386686 time(s)
Unknown


(IMG:http://metalarea.org/images/audiocovers/2014_Nov/acov_tid234032_thumb.jpg)

*Artist: Southern Front
*Album: Death Throes
*Year: 2014
*Genre: Thrash/Groove Metal
*Country: United States (IMG:http://metalarea.org/forum/style_images/flags/United%20States.png)
*Format: mp3@CBR320kbps
*Size: 63MB

Tracklist:
1. Face Down 04:28
2. Blood of Christ 03:53
3. Butchering the Bloodlines 04:04
4. Go Blank 03:51
5. The Void 00:49 instrumental
6. Obstacle of Forgiveness 03:15
7. Burned Awake 03:52
8. Dead Horse 03:46
******************************
Total playing time: 27:58




Technical info
(IMG:http://metalarea.org/images/spectrogram/2014_Nov/3baf8d1762903ff407265e04948fd692.png)
Input File: 02 - Blood of Christ.mp3
Channels : 2
Sample Rate : 44100
Precision : 16-bit
Duration : 00:03:53.47 = 10296027 samples = 17510.2 CDDA sectors
File Size : 9.34M
Bit Rate : 320k
Sample Encoding: MPEG audio (layer I, II or III)
Comments :
Title=Blood of Christ
Artist=Southern Front
Album=Death Throes
Tracknumber=2
Year=2014
Genre=Thrash Metal



Register


Thanks:
Go to the top of the page
  Insert nick Quick quote
+Quote Post
 
Start new topic
Replies (1 - 5)
post Jun 11 2016, 22:49:55
Post #2

_ - = # Thrashogolic # = - _ ... а давайте поржём все вместе
**************
Group: Металариец
Posts: 21,095
Releases: 4444
From: 404
On Forums: 11 years 1 month
Thanks: 28074 time(s)
Ukraine


Go to the top of the page
  Insert nick Quick quote
+Quote Post
post Jun 12 2016, 02:06:02
Post #3

Dr.
**************
Group: Металариец
Posts: 5,332
Releases: 0
From: Primorye.ru
On Forums: 10 years 4 months
Thanks: 1109 time(s)
Russian Federation


Очень хороший, качевый Death Throes + (IMG:style_emoticons/default/9.gif)
Go to the top of the page
  Insert nick Quick quote
+Quote Post
post Jun 6 2021, 09:33:52    Сейчас играет: Re-up please ;-)
Post #4

Четыре Литра
****
Group: Металариец
Posts: 334
Releases: 0
From: Sofia
On Forums: 13 years 10 months
Thanks: 18 time(s)
Bulgaria


Please re- up (IMG:style_emoticons/default/pray.gif) (IMG:style_emoticons/default/pray.gif)
Go to the top of the page
  Insert nick Quick quote
+Quote Post
post Jun 12 2021, 05:30:39
Post #5

Group Icon
Group: S-moderation team
Posts: 21,539
Releases: 1443
From: Zagreb
On Forums: 10 years 5 months
Thanks: 100169 time(s)
Croatia


Register


Thanks:
Go to the top of the page
  Insert nick Quick quote
+Quote Post
post Jun 12 2021, 07:18:34
Post #6

Четыре Литра
****
Group: Металариец
Posts: 334
Releases: 0
From: Sofia
On Forums: 13 years 10 months
Thanks: 18 time(s)
Bulgaria


Amazing ! (IMG:style_emoticons/default/sbobl.png)

QUOTE(Borderline1991 @ Jun 12 2021, 04:30:39) *

Go to the top of the page
  Insert nick Quick quote
+Quote Post

Reply to this topicStart new topic
1 User(s) are reading this topic (1 Guests and 0 Anonymous Users)
0 Members:

 



- Lo-Fi Version Support form
Copyrights and abuse reports form
Time is now: 4th August 2021 - 14:29:10